Подписывайся на наш канал в Telegram https://t.me/torrentok и получи доступ к торрентам без ограничений!

Безмозглые / BrainDead (2016) HDTV [H.264 / 720p-LQ] (сезон 1, серии 1-1 из 13) HamsterStudio (обновляемая) торрент скачать бесплатно

Безмозглые / BrainDead (2016) HDTV [H.264 / 720p-LQ] (сезон 1, серии 1-1 из 13) HamsterStudio (обновляемая)Производство: США
Жанр: Ужасы, Фантастика, Драма, Комедия
Режиссер: Роберт Кинг

Актеры
Жан Максвелл, Бет Мэлоун, Хэппи Андерсон, Стефан Канкен, Чарльз Семине, Келли Аарон, Джек Димич, Нэйтан Фергюсон, Гленн Флешлер, Джонни Гилл и др.

Описание

Молодой человек по имени Хил оказывается настоящим счастливчиком - ему уготовано служить на Правительство США. О таком странном сюжете не догадывалась даже Юлия Володимировна. Однако главный герой на первых радостях назначения на столь ответственную должность, сталкивается с неприятностями. Он выясняет, что по сути американского правительства не существует в принципе. К тому же Хилл становится свидетелем нападения на Землю инопланетян, которые через свою икру просачиваются в тела конгрессменов и контролируют их разум. Что же теперь делать? Расскажешь кому - сразу отправят в дурку. Придется Хилу все разруливать самому.

Дата мировой премьеры: 13 июня 2016
Релиз от: lamster
Продолжительность: ~00: 45: 00
Качество видео: HDTV
Перевод: Многоголосый закадровый, профессиональный
Озвучка/Автор перевода: Алексей Соловьёв, Анастасия Снегирева и Андрей Жариков/Антон Кедров
Реклама: присутствуют аудио и видео вставки рекламы
Видео: AVC/H.264, 1280х720, ~3 099 Kbps, 23.976 fps
Аудио: AC3, 384 Кбит/сек, 6 каналов, 48 КГц Код:
Complete name : G:Braindead.720p.HDTV.HamsterStudioBraindead.S01E01.720p.HDTV.HamsterStudio.mkv
Format : Matroska
Format version : Version 4/Version 2
File size : 1.08 GiB
Duration : 44mn 10s
Overall bit rate mode : Variable
Overall bit rate : 3 485 Kbps
Encoded date : UTC 2016-06-14 20:37:59
Writing application : mkvmerge v7.8.0 (\'River Man\') 64bit built on Mar 27 2015 16:31:37
Writing library : libebml v1.3.1 + libmatroska v1.4.2
Video
ID : 1
Format : AVC
Format/Info : Advanced Video Codec
Format profile :[email protected]
Format settings, CABAC : Yes
Format settings, ReFrames : 3 frames
Codec ID : V_MPEG4/ISO/AVC
Duration : 44mn 10s
Bit rate mode : Variable
Bit rate : 3 099 Kbps
Maximum bit rate : 24.0 Mbps
Width : 1 280 pixels
Height : 720 pixels
Display aspect ratio : 16:9
Frame rate mode : Constant
Frame rate : 23.976 (24000/1001) fps
Original frame rate : 23.976 (23976/1000) fps
Standard : NTSC
Color space : YUV
Chroma subsampling : 4:2:0
Bit depth : 8 bits
Scan type : Progressive
Bits/(Pixel*Frame) : 0.140
Stream size : 979 MiB (89%)
Default : Yes
Forced : No
Color range : Limited
Audio
ID : 2
Format : AC-3
Format/Info : Audio Coding 3
Mode extension : CM (complete main)
Format settings, Endianness : Big
Codec ID : A_AC3
Duration : 44mn 10s
Bit rate mode : Constant
Bit rate : 384 Kbps
Channel(s) : 6 channels
Channel positions : Front: L C R, Side: L R, LFE
Sampling rate : 48.0 KHz
Frame rate : 31.250 fps (1536 spf)
Compression mode : Lossy
Stream size : 121 MiB (11%)
Title : HamsterStudio.Org
Language : Russian
Default : Yes
Forced : Yes


Скриншоты для ознакомления




Онлайн видео Безмозглые

Другие торренты по теме:

  • Смерть мозга / Безмозглые / BrainDead (2016) HDTVRip [H.264 / 720p-LQ] (сезон 1, серии 1 из 13) OMSKBIRD (обновляемая)
  • Смерть мозга / Безмозглые / BrainDead (2016) HDTVRip (сезон 1, серии 1 из 13) OMSKBIRD (обновляемая)
  • Безмозглые / BrainDead (2016) WEB-DLRip [H.264 / 720p-LQ] (сезон 1, серии 1 из 13) LostFilm (обновляемая)
  • Безмозглые / BrainDead (2016) WEB-DLRip [H.264 / 1080p-LQ] (сезон 1, серии 1-5 из 13) BaibaKo (обновляемая)
  • Безмозглые / Смерть мозга / BrainDead (2016) WEBRip (сезон 1, серии 1 из 13) LostFilm (обновляемая)
  • Безмозглые / Смерть мозга / BrainDead (2016) HDTVRip [H.264] (сезон 1, серии 1 из 13) RATTLEBOX [MP4|1920х1080] (обновляемая)

  • Посетители, находящиеся в группе Гости, не могут оставлять комментарии в данной новости.
    Для авторских прав
    Вход на сайт
    Навигация
    Популярное