Подписывайся на наш канал в Telegram https://t.me/torrentok и получи доступ к торрентам без ограничений!

Всё ещё Король / Still the King (2016) WEB-DL [H.264 / 720p-LQ] (сезон 1, серии 1 из 13) BaibaKo (обновляемая) торрент скачать бесплатно

Всё ещё Король / Still the King (2016) WEB-DL [H.264 / 720p-LQ] (сезон 1, серии 1 из 13) BaibaKo (обновляемая)Производство: США
Жанр: Комедия
Режиссер: Джон Полл, Тамра Дэвис

Актеры
Рик Бюси, Джошуа Чайлдз, Джастин Дрей, ЛаКуита Чантелл Джеймс, Майкл Лус и др.

Описание

Комедия расскажет о похождениях бывшего кантри-певца, пьяницы и разгильдяя Вернона Брауна. После двадцати лет прозябания на задворках музыкальной индустрии, Вернон приезжает в Неваду, чтобы сделать карьеру лучшего имитатора Элвиса Пресли. Но об этом плане приходится забыть, когда Вернон устраивает пьяный дебош и врезается в здание церкви Лафлина, за что приговаривается к общественным работам. Чтобы избежать наказания, Вернону приходит в голову гениальная идея - выдать себя за нового пастора.

Релиз от: BaibaKo
Продолжительность: ~00: 22: 00
Качество видео: WEB-DL
Перевод: Многоголосый закадровый, профессиональный - BaibaKo
Реклама: присутствуют аудио, видео, текстовые вставки рекламы.
Видео: AVC/H.264, 1280x718, ~4012 Кбит/сек
Аудио: AC3, 2 ch, 384 Кбит/сек - многоголосый закадровый
Аудио: AC3, 2 ch, 384 Кбит/сек - оригинал Код:
Общее
Уникальный идентификатор : 224899233287937015020541597553085113055 (0xA932044C149E032A8829DB18A30BE2DF)
Полное имя : H:СериалыВсё ещё КорольStill.the.King.s01.HD720p.WEB-DL.Rus.Eng.BaibaKoStill.the.King.s01e01.HD720p.WEB-DL.Rus.Eng.BaibaKo.tv.mkv
Формат : Matroska
Версия формата : Version 4/Version 2
Размер файла : 770 Мбайт
Продолжительность : 22 м.
Общий поток : 4782 Кбит/сек
Дата кодирования : UTC 2016-06-13 23:44:31
Программа кодирования : mkvmerge v9.2.0 (\'Photograph\') 64bit
Библиотека кодирования : libebml v1.3.3 + libmatroska v1.4.4
Видео
Идентификатор : 1
Формат : AVC
Формат/Информация : Advanced Video Codec
Профиль формата :[email protected]
Параметр CABAC формата : Да
Параметр ReFrames формата : 4 кадра
Идентификатор кодека : V_MPEG4/ISO/AVC
Продолжительность : 22 м.
Битрейт : 4012 Кбит/сек
Ширина : 1280 пикселей
Высота : 718 пикселей
Соотношение сторон : 16:9
Режим частоты кадров : Постоянный
Частота кадров : 23, 976 (23976/1000) кадра/сек
Цветовое пространство : YUV
Субдискретизация насыщенности : 4:2:0
Битовая глубина : 8 бит
Тип развёртки : Прогрессивная
Бит/(Пиксели*Кадры) : 0.182
Размер потока : 646 Мбайт (84%)
Библиотека кодирования : x264 core 148 r2692 64f4e24
Настройки программы : cabac=1/ref=3/deblock=1:0:0/analyse=0x3:0x113/me=hex/subme=7/psy=1/psy_rd=1.00:0.00/mixed_ref=1/me_range=16/chroma_me=1/trellis=1/8x8dct=1/cqm=0/deadzone=21, 11/fast_pskip=1/chroma_qp_offset=-2/threads=12/lookahead_threads=2/sliced_threads=0/nr=0/decimate=1/interlaced=0/bluray_compat=0/constrained_intra=0/bframes=3/b_pyramid=2/b_adapt=1/b_bias=0/direct=1/weightb=1/open_gop=0/weightp=2/keyint=240/keyint_min=23/scenecut=40/intra_refresh=0/rc_lookahead=40/rc=crf/mbtree=1/crf=18.0/qcomp=0.60/qpmin=0/qpmax=69/qpstep=4/ip_ratio=1.40/aq=1:1.00
Default : Нет
Forced : Нет
Аудио #1
Идентификатор : 2
Формат : AC-3
Формат/Информация : Audio Coding 3
Расширение режима : CM (complete main)
Параметр Endianness формата : Big
Идентификатор кодека : A_AC3
Продолжительность : 22 м.
Вид битрейта : Постоянный
Битрейт : 384 Кбит/сек
Каналы : 2 канала
Расположение каналов : Front: L R
Частота : 48, 0 КГц
Частота кадров : 31, 250 кадров/сек (1536 spf)
Метод сжатия : С потерями
Размер потока : 61, 8 Мбайт (8%)
Язык : Russian
Default : Да
Forced : Нет
Аудио #2
Идентификатор : 3
Формат : AC-3
Формат/Информация : Audio Coding 3
Расширение режима : CM (complete main)
Параметр Endianness формата : Big
Идентификатор кодека : A_AC3
Продолжительность : 22 м.
Вид битрейта : Постоянный
Битрейт : 384 Кбит/сек
Каналы : 2 канала
Расположение каналов : Front: L R
Частота : 48, 0 КГц
Частота кадров : 31, 250 кадров/сек (1536 spf)
Метод сжатия : С потерями
Размер потока : 61, 8 Мбайт (8%)
Язык : English
Default : Нет
Forced : Нет


Скриншоты для ознакомления




Онлайн видео Всё ещё Король

Другие торренты по теме:

  • Всё ещё Король / Still the King (2016) WEB-DLRip [H.264 / 720p-LQ] (сезон 1, серии 1-4 из 13) IdeaFilm (обновляемая)

  • Посетители, находящиеся в группе Гости, не могут оставлять комментарии в данной новости.