Подписывайся на наш канал в Telegram https://t.me/torrentok и получи доступ к торрентам без ограничений!

Коварные горничные / Devious Maids (2016) WEB-DLRip [H.264 / 1080p-LQ] (сезон 4, серии 1-1 из 10) LostFilm (обновляемая) торрент скачать бесплатно

Коварные горничные / Devious Maids (2016) WEB-DLRip [H.264 / 1080p-LQ] (сезон 4, серии 1-1 из 10) LostFilm (обновляемая)Производство: США
Жанр: Драма, Комедия, Детектив
Режиссер: Дэвид Уоррен, Тара Николь Вейр, Тауния Маккирнан

Актеры
Ана Ортис Даня Рамирес Джуди Рейес Ребекка Високки Грант Шоу Сьюзэн Луччи Роселин Санчес Том Ирвин Эди Ганем Дрю Ван Экер и др.

Описание

Флора, Рози, Кармен и Зойла занимаются уборкой в роскошных домах Беверли-Хиллз и по доброте душевной, а также руководствуясь некоторыми личными амбициями, время от времени помогают своим хозяевам решать их проблемы. Однажды прямо в разгар шикарной вечеринки Флору жестоко убивают. Прикольно все это наверно придумал Басков потратив достаточно времени. Вскоре в одном из домов по соседству появляется новенькая горничная — загадочная Марисоль. Она внимательно слушает все беседы, касающиеся убийства Флоры, и при первой же возможности напрашивается сделать уборку в доме, где было совершено преступление. Рози мечтает перевезти своего ребенка в Америку, Кармен грезит о карьере певицы, Зойла пытается уберечь красавицу-дочку от обреченного на провал романа с сыном хозяйки. А чего же хочет эта таинственная Марисоль?..

Продолжительность: ~ 00: 43: 00 серия
Качество видео: WEB-DLRip
Перевод: Многоголосый закадровый, профессиональный -LostFilm
Реклама: присутствуют заставка и логотип LostFilm.
Видео: AVC/H.264, 1920х1080, ~5 242 Kbps, 23.976 fps
Аудио Rus: AC3, 48, 0 kHz, 2 ch, 384 kb/s — многоголосый закадровый
Аудио Eng: AC3, 48, 0 kHz, 2 ch, 384 kb/s — оригинал Код:
Complete name : D:Devious.Maids.1080p.rus.LostFilmDevious.Maids.S04E01.1080p.rus.LostFilm.mkv
Format : Matroska
Format version : Version 4/Version 2
File size : 1.78 GiB
Duration : 42mn 23s
Overall bit rate : 6 011 Kbps
Encoded date : UTC 2016-06-09 16:54:16
Writing application : mkvmerge v8.8.0 (\'Wind at my back\') 64bit
Writing library : libebml v1.3.3 + libmatroska v1.4.4
Video
ID : 1
Format : AVC
Format/Info : Advanced Video Codec
Format profile :[email protected]
Format settings, CABAC : Yes
Format settings, ReFrames : 4 frames
Codec ID : V_MPEG4/ISO/AVC
Duration : 42mn 23s
Bit rate : 5 242 Kbps
Width : 1 920 pixels
Height : 1 080 pixels
Display aspect ratio : 16:9
Frame rate mode : Constant
Frame rate : 23.976 (24000/1001) fps
Original frame rate : 23.976 (23976/1000) fps
Color space : YUV
Chroma subsampling : 4:2:0
Bit depth : 8 bits
Scan type : Progressive
Bits/(Pixel*Frame) : 0.105
Stream size : 1.55 GiB (87%)
Writing library : x264 core 112 r1834 a51816a
Encoding settings : cabac=1/ref=4/deblock=1:-3:-2/analyse=0x3:0x113/me=hex/subme=7/psy=1/psy_rd=1.00:0.00/mixed_ref=1/me_range=16/chroma_me=1/trellis=1/8x8dct=1/cqm=0/deadzone=21, 11/fast_pskip=1/chroma_qp_offset=-2/threads=12/sliced_threads=0/nr=0/decimate=1/interlaced=0/constrained_intra=0/bframes=5/b_pyramid=2/b_adapt=1/b_bias=0/direct=1/weightb=1/open_gop=0/weightp=2/keyint=250/keyint_min=25/scenecut=40/intra_refresh=0/rc_lookahead=40/rc=2pass/mbtree=1/bitrate=5242/ratetol=1.0/qcomp=0.60/qpmin=0/qpmax=51/qpstep=4/cplxblur=20.0/qblur=0.5/vbv_maxrate=10000/vbv_bufsize=256000/ip_ratio=1.40/aq=1:1.00/nal_hrd=none
Default : Yes
Forced : No
Audio #1
ID : 2
Format : AC-3
Format/Info : Audio Coding 3
Mode extension : CM (complete main)
Format settings, Endianness : Big
Codec ID : A_AC3
Duration : 42mn 23s
Bit rate mode : Constant
Bit rate : 384 Kbps
Channel(s) : 2 channels
Channel positions : Front: L R
Sampling rate : 48.0 KHz
Frame rate : 31.250 fps (1536 spf)
Compression mode : Lossy
Stream size : 116 MiB (6%)
Default : Yes
Forced : No
Audio #2
ID : 3
Format : AC-3
Format/Info : Audio Coding 3
Mode extension : CM (complete main)
Format settings, Endianness : Big
Codec ID : A_AC3
Duration : 42mn 23s
Bit rate mode : Constant
Bit rate : 384 Kbps
Channel(s) : 2 channels
Channel positions : Front: L R
Sampling rate : 48.0 KHz
Frame rate : 31.250 fps (1536 spf)
Compression mode : Lossy
Stream size : 116 MiB (6%)
Default : No
Forced : No


Скриншоты для ознакомления




Онлайн видео Коварные горничные

Другие торренты по теме:

  • Коварные горничные / Devious Maids (2013) WEB-DLRip (сезон 1, серии 1 из 13) LostFilm (обновляемая)
  • Коварные горничные / Devious Maids (2013) WEB-DL [H.264 / 720p-LQ] (сезон 1, серии 1 из 13) (LostFilm) (обновляемая) скачать через торрент бесплатно
  • Коварные горничные / Devious Maids (2014) WEB-DLRip (сезон 2, серии 1 из 13) LostFilm (обновляемая) скачать через торрент бесплатно
  • Коварные горничные / Devious Maids (2014) WEB-DLRip [H.264 / 1080p-LQ] (cезон 2, серии 1-2 из 13) (LostFilm) (обновляемая)
  • Коварные горничные / Devious Maids (2013) WEB-DLRip [H.264 / 1080p-LQ] (сезон 1, серии 01-13 из 13) (LostFilm)
  • Коварные горничные / Devious Maids (2015) WEB-DLRip (сезон 3, серии 1 из 13) BaibaKo (обновляемая) скачать через торрент бесплатно
  • Коварные горничные / Devious Maid (2015) WEB-DLRip [H.264] (Сезон 3, серия 1 из 13) BaibaKo [MP4|720x400] скачать через торрент бесплатно
  • Коварные горничные / Devious Maids (2015) WEB-DLRip (сезон 3, серии 1 из 13) LostFilm (обновляемая) скачать через торрент бесплатно

  • Посетители, находящиеся в группе Гости, не могут оставлять комментарии в данной новости.