Подписывайся на наш канал в Telegram https://t.me/torrentok и получи доступ к торрентам без ограничений!

Накорми зверя / Feed the Beast (2016) HDTVRip [H.264 / 720p-LQ] (сезон 1, серии 1-2 из 10) BaibaKo (обновляемая) торрент скачать бесплатно

Накорми зверя / Feed the Beast (2016) HDTVRip [H.264 / 720p-LQ] (сезон 1, серии 1-2 из 10) BaibaKo (обновляемая)Производство: США
Жанр: драма
Режиссер: Стив Шилл, Дэниэл Эттиэс, Джон С. Бейрд

Актеры
Дэвид Швиммер, Джим Стёрджесс, Ивэн Леоне, Демостенс Крисан, Вики Уэйрхайм, Муса Крэйиш, Джеффри Кантор, Триция Паолуччио и др.

Описание

Это история о двух закадычных друзьях, которые решают осуществить свою давнюю мечту — открыть собственный ресторан. Один из главных героев — великолепный шеф-повар, у которого, правда, большие проблемы с мафией и законом. Второй — первоклассный сомелье, а ещё вдовец, в одиночку воспитывающий сына-подростка.

Дата мировой премьеры: 5 июня 2016
Продолжительность: ~ 00: 45: 00 серия
Качество видео: HDTVRip
Перевод: Многоголосый закадровый, профессиональный -BaibaKo
Автор перевода: Фиона Кудреватых, Мария Назарко и Анна Макаренко
Озвучка: Лира Грим, Олекса Мельник, Виталий Ткаченко и Алексей Татарча
Монтаж: Павел Дежин
Видео: AVC/H.264, 1280x720 (16: 9), ~2 977 kb/s
Аудио Rus: AC3, 48, 0 kHz, 6 ch, 384 kb/s - многоголосый закадровый
Аудио Eng: AC3, 48, 0 kHz, 6 ch, 384 kb/s - оригинал Код: General
Unique ID : 175731546231724822905472071200316329214 (0x8434AA2A2E10D75B8BBA62D02DD00CFE)
Complete name : Feed the Beast [S01] [BaibaKo]Feed.the.Beast.s01e01.720p.HDTV.Rus.Eng.BaibaKo.tv.mkv
Format : Matroska
Format version : Version 4/Version 2
File size : 1.17 GiB
Duration : 44mn 52s
Overall bit rate : 3 747 Kbps
Encoded date : UTC 2016-06-08 22:35:08
Writing application : mkvmerge v9.1.0 (\'Little Earthquakes\') 64bit
Writing library : libebml v1.3.3 + libmatroska v1.4.4
Video
ID : 1
Format : AVC
Format/Info : Advanced Video Codec
Format profile :[email protected]
Format settings, CABAC : Yes
Format settings, ReFrames : 5 frames
Codec ID : V_MPEG4/ISO/AVC
Duration : 44mn 52s
Bit rate : 2 977 Kbps
Width : 1 280 pixels
Height : 720 pixels
Display aspect ratio : 16:9
Frame rate mode : Constant
Frame rate : 23.976 (24000/1001) fps
Color space : YUV
Chroma subsampling : 4:2:0
Bit depth : 8 bits
Scan type : Progressive
Bits/(Pixel*Frame) : 0.135
Stream size : 955 MiB (79%)
Writing library : x264 core 148 r2692 64f4e24
Encoding settings : cabac=1/ref=5/deblock=1:0:0/analyse=0x3:0x113/me=umh/subme=8/psy=1/psy_rd=1.00:0.00/mixed_ref=1/me_range=16/chroma_me=1/trellis=1/8x8dct=1/cqm=0/deadzone=21, 11/fast_pskip=1/chroma_qp_offset=-2/threads=22/lookahead_threads=3/sliced_threads=0/nr=0/decimate=1/interlaced=0/bluray_compat=0/constrained_intra=0/bframes=3/b_pyramid=2/b_adapt=2/b_bias=0/direct=3/weightb=1/open_gop=0/weightp=2/keyint=250/keyint_min=23/scenecut=40/intra_refresh=0/rc_lookahead=50/rc=crf/mbtree=1/crf=18.0/qcomp=0.60/qpmin=0/qpmax=69/qpstep=4/ip_ratio=1.40/aq=1:1.00
Language : English
Default : Yes
Forced : No
Color range : Limited
Matrix coefficients : BT.709
Audio #1
ID : 2
Format : AC-3
Format/Info : Audio Coding 3
Mode extension : CM (complete main)
Format settings, Endianness : Big
Codec ID : A_AC3
Duration : 44mn 52s
Bit rate mode : Constant
Bit rate : 384 Kbps
Channel(s) : 6 channels
Channel positions : Front: L C R, Side: L R, LFE
Sampling rate : 48.0 KHz
Frame rate : 31.250 fps (1536 spf)
Compression mode : Lossy
Stream size : 123 MiB (10%)
Language : Russian
Default : Yes
Forced : No
Audio #2
ID : 3
Format : AC-3
Format/Info : Audio Coding 3
Mode extension : CM (complete main)
Format settings, Endianness : Big
Codec ID : A_AC3
Duration : 44mn 52s
Bit rate mode : Constant
Bit rate : 384 Kbps
Channel(s) : 6 channels
Channel positions : Front: L C R, Side: L R, LFE
Sampling rate : 48.0 KHz
Frame rate : 31.250 fps (1536 spf)
Compression mode : Lossy
Stream size : 123 MiB (10%)
Language : English
Default : No
Forced : No

Скриншоты для ознакомления




Онлайн видео Накорми зверя

Другие торренты по теме:

  • Накорми зверя / Feed the Beast (2016) HDTV [H.264 / 720p-LQ] (сезон 1, серии 1 из 10) SunshineStudio (обновляемая)
  • Накорми зверя / Feed the Beast (2016) WEB-DL [H.264 / 1080p-LQ] (сезон 1, серии 1 из 10) BaibaKo (обновляемая)
  • Накорми зверя / Feed the Beast (2016) WEB-DLRip (сезон 1, серии 1-2 из 10) NewStudio (обновляемая)
  • Накорми зверя / Feed the Beast (2016) WEB-DL [H.264 / 1080p-LQ] (сезон 1, серии 1-6 из 10) AlexFilm (обновляемая)

  • Посетители, находящиеся в группе Гости, не могут оставлять комментарии в данной новости.