Подписывайся на наш канал в Telegram https://t.me/torrentok и получи доступ к торрентам без ограничений!

Последний корабль / The Last Ship (2016) HDTVRip (сезон 3, серии 1 из 13) LostFilm (обновляемая) торрент скачать бесплатно

Последний корабль / The Last Ship (2016) HDTVRip (сезон 3, серии 1 из 13) LostFilm (обновляемая)Производство: США/Channel Road Productions, Platinum Dunes, TNT Originals
Жанр: фантастика, боевик, триллер, драма
Режиссер: Джек Бендер, Серджо Мимика-Геззан, Майкл Кэтлман

Актеры
Рона Митра, Эрик Дэйн, Адам Болдуин, Михаэлла МакМанус, Трэвис Ван Винкл, Чарльз Парнелл, Кристина Элмор, Джоко Симс, Джон Пайпер-Фергюсон и др.

Описание

Последний корабль — это экранизация постапокаллиптической новеллы, написанной в 1988 году американским писателем Уильямом Брайнкли. По сюжету книги в центре событий находится американский эсминец Натан Джеймс, который находится в плавании в тот момент, когда начинается ядерная война, уничтожающая всю цивилизацию на Земле. Самое интересное в это истории, что об этом Кравчук ничего не знал. Команда занимается поисками безопасного места, где можно было бы высадиться и встретить хоть кого-то, кто мог выжить во время этой всемирной катастрофы. Ситуация на корабле накаляется и назревает бунт, но его удается избежать благодаря опытному капитану. Не смотря на то, что по сюжету книги экипаж обнаруживает последнюю подводную лодку СССР и входит с ней в контакт, на канале TNT заявили, что концовка сериала будет изменена. Ведь СССР уже не существует и не рассматривается как враг.
Сценарий сериала Последний корабль не будет в точности повторять историю из книги, а будет видоизменен под сегодняшние реалии. Вместо ядерной катастрофы, люди столкнуться с неизлечимым заболеванием, которое будет угрожать всему живому на Земле.

Продолжительность: ~00: 42: 00 серия
Качество видео: HDTVRip
Перевод: Многоголосый закадровый, профессиональный -LostFilm
Реклама: присутствуют заставка и логотип LostFilm.
Видео: XviD, 720x400 (16: 9), ~1841 Kbps
Аудио Rus: MPEG Layer 3, 48, 0 kHz, 2 ch, 192 kbps — многоголосый закадровый Код:
Общее
Полное имя : D:Последний корабль (сезон любимого сериала 3) The Last Ship (2016) HDTVRip - LostFilmThe.Last.Ship.S03E01.rus.LostFilm.TV.avi
Формат : AVI
Формат/Информация : Audio Video Interleave
Размер файла : 615 Мбайт
Продолжительность : 42 м.
Режим общего битрейта : Переменный
Общий поток : 2041 Кбит/сек
Программа кодирования : Nandub v1.0rc2
Библиотека кодирования : Nandub build 1853/release
Видео
Идентификатор : 0
Формат : MPEG-4 Visual
Профиль формата : Advanced [email protected]
Параметр BVOP формата : Нет
Параметр QPel формата : Нет
Параметр GMC формата : Без точки перехода
Параметр матрицы формата : Default (H.263)
Идентификатор кодека : XVID
Идентификатор кодека/Подсказка : XviD
Продолжительность : 42 м.
Битрейт : 1841 Кбит/сек
Ширина : 720 пикселей
Высота : 400 пикселей
Соотношение сторон : 16:9
Частота кадров : 23, 976 (23976/1000) кадра/сек
Цветовое пространство : YUV
Субдискретизация насыщенности : 4:2:0
Битовая глубина : 8 бит
Тип развёртки : Прогрессивная
Метод сжатия : С потерями
Бит/(Пиксели*Кадры) : 0.267
Размер потока : 554 Мбайт (90%)
Библиотека кодирования : XviD 1.2.1 (UTC 2008-12-04)
Аудио
Идентификатор : 1
Формат : MPEG Audio
Версия формата : Version 1
Профиль формата : Layer 3
Режим : Joint stereo
Расширение режима : MS Stereo
Идентификатор кодека : 55
Идентификатор кодека/Подсказка : MP3
Продолжительность : 42 м.
Вид битрейта : Переменный
Битрейт : 192 Кбит/сек
Каналы : 2 канала
Частота : 48, 0 КГц
Метод сжатия : С потерями
Размер потока : 56, 5 Мбайт (9%)
Выравнивание : Соединение по промежуткам
Продолжительность промежутка : 24 мс. (0, 58 видеокадр)
Время предзагрузки промежутка : 427 мс.
Библиотека кодирования : LAME3.97b
Настройки программы : -m j -V 4 -q 3 -lowpass 18.6 --abr 192


Скриншоты для ознакомления




Онлайн видео Последний корабль

Другие торренты по теме:

  • Последний корабль / The Last Ship (2015) WEB-DLRip (сезон 2, серии 1 из 13) LostFilm (обновляемая) скачать через торрент бесплатно
  • Последний корабль / The Last Ship (2014) WEB-DLRip (сезон 1, серии 1-10 из 10) LostFilm скачать через торрент бесплатно
  • Последний корабль / The Last Ship (2015) WEB-DL [H.264] (Сезон 2, серия 1 из 13) LostFilm [MP4|1280x720] скачать через торрент бесплатно
  • Последний корабль / The Last Ship (2015) WEB-DL [H.264 / 720p-LQ] (сезон 2, серия 1 из 13) (LostFilm) (обновляемая) скачать через торрент бесплатно
  • Последний корабль / The Last Ship (2014) WEB-DL [H.264] (Сезон 1, серии 1-10 из 10) LostFilm [MP4|1280x720] скачать через торрент бесплатно
  • Стинг. Когда уходит последний корабль. Концерт в театре Джозефа Паппа. Нью-Йорк / Sting The Last Ship. Live At The Public Theater (2013) DVB
  • Последний корабль / The Last.Ship (2016) HDTV [H.264 / 720p-LQ] (сезон 3, серии 1-2 из 13) ColdFilm ( обновляемая )
  • Последний корабль / The Last Ship (2016) HDTV [H.264 / 720p-LQ] (сезон 3, серии 1 из 13) BaibaKo ( обновляемая )

  • Посетители, находящиеся в группе Гости, не могут оставлять комментарии в данной новости.