Подписывайся на наш канал в Telegram https://t.me/torrentok и получи доступ к торрентам без ограничений!

Последний корабль / The Last Ship (2016) HDTVRip [H.264 / 720p-LQ] (сезон 3, серии 1 из 13) OMSKBIRD records (обновляемая) торрент скачать бесплатно

Последний корабль / The Last Ship (2016) HDTVRip [H.264 / 720p-LQ] (сезон 3, серии 1 из 13) OMSKBIRD records (обновляемая)Производство: США
Жанр: Фантастика, Драма, Боевик
Режиссер: Джек Бендер, Пол Холахан, Серджо Мимика-Геззан

Актеры
Рона Митра, Эрик Дэйн, Адам Болдуин, Трэвис Ван Винкл, Джоко Симс, Чарльз Парнелл, Марисса Нейтлинг, Кристина Элмор, Джон Пайпер-Фергюсон, Кевин Майкл Мартин и другие

Описание

Глобальная пандемия уничтожает восемьдесят процентов населения планеты. О таком странном сюжете не догадывалась даже Юлия Володимировна. Военный эсминец Соединенных Штатов отправляется в долгое путешествие с единственной задачей — выживать ровно столько, сколько потребуется для создания вакцины. И таким образом спасти человечество от вымирания.

Релиз от: OMSKBIRD records
Продолжительность: ~00: 42: 00
Качество видео: HDTVRip 720p
Перевод: Многоголосый закадровый, профессиональный
Озвучка/Автор перевода: OMSKBIRD records
Вид субтитров: Отсутствуют
Реклама: присутствуют аудио вставки рекламы
Видео: AVC/H.264, 1280x720 (16: 9), ~3300 kbps
Аудио # rus: AC3, 6 ch, 384 kbps, CBR
Аудио # eng: AC3, 6 ch, 384 kbps, CBR Код:
General
Unique ID : 215154707949067855181630472398988850268 (0xA1DD4A1ACDE1B89D81FFDC8A437F345C)
Complete name : G:FilmsThe.Last.Ship.S03.720p.OmskBirdThe.Last.Ship.S03E01.720p.HDTV.OmskBird.mkv
Format : Matroska
Format version : Version 4/Version 2
File size : 1.19 GiB
Duration : 41mn 56s
Overall bit rate : 4 067 Kbps
Encoded date : UTC 2016-06-15 07:57:40
Writing application : mkvmerge v9.1.0 (\'Little Earthquakes\') 64bit
Writing library : libebml v1.3.3 + libmatroska v1.4.4
Video
ID : 1
Format : AVC
Format/Info : Advanced Video Codec
Format profile :[email protected]
Format settings, CABAC : Yes
Format settings, ReFrames : 8 frames
Codec ID : V_MPEG4/ISO/AVC
Duration : 41mn 56s
Bit rate : 3 297 Kbps
Width : 1 280 pixels
Height : 720 pixels
Display aspect ratio : 16:9
Frame rate mode : Constant
Frame rate : 23.976 (24000/1001) fps
Color space : YUV
Chroma subsampling : 4:2:0
Bit depth : 8 bits
Scan type : Progressive
Bits/(Pixel*Frame) : 0.149
Stream size : 989 MiB (81%)
Writing library : x264 core 148 r2665 a01e339
Encoding settings : cabac=1/ref=8/deblock=1:-2:-2/analyse=0x3:0x113/me=umh/subme=9/psy=1/psy_rd=1.00:0.00/mixed_ref=1/me_range=24/chroma_me=1/trellis=1/8x8dct=1/cqm=0/deadzone=21, 11/fast_pskip=0/chroma_qp_offset=-2/threads=18/lookahead_threads=2/sliced_threads=0/nr=0/decimate=1/interlaced=0/bluray_compat=0/constrained_intra=0/bframes=5/b_pyramid=2/b_adapt=2/b_bias=0/direct=3/weightb=1/open_gop=0/weightp=2/keyint=250/keyint_min=23/scenecut=40/intra_refresh=0/rc_lookahead=50/rc=crf/mbtree=1/crf=18.0/qcomp=0.60/qpmin=0/qpmax=69/qpstep=4/ip_ratio=1.40/aq=1:1.00
Language : English
Default : Yes
Forced : No
Audio #1
ID : 2
Format : AC-3
Format/Info : Audio Coding 3
Mode extension : CM (complete main)
Format settings, Endianness : Big
Codec ID : A_AC3
Duration : 41mn 56s
Bit rate mode : Constant
Bit rate : 384 Kbps
Channel(s) : 6 channels
Channel positions : Front: L C R, Side: L R, LFE
Sampling rate : 48.0 KHz
Frame rate : 31.250 fps (1536 spf)
Compression mode : Lossy
Stream size : 115 MiB (9%)
Title : OmskBird 5.1
Language : Russian
Default : Yes
Forced : No
Audio #2
ID : 3
Format : AC-3
Format/Info : Audio Coding 3
Mode extension : CM (complete main)
Format settings, Endianness : Big
Codec ID : A_AC3
Duration : 41mn 56s
Bit rate mode : Constant
Bit rate : 384 Kbps
Channel(s) : 6 channels
Channel positions : Front: L C R, Side: L R, LFE
Sampling rate : 48.0 KHz
Frame rate : 31.250 fps (1536 spf)
Compression mode : Lossy
Stream size : 115 MiB (9%)
Title : original 5.1
Language : English
Default : No
Forced : No


Скриншоты для ознакомления




Онлайн видео Последний корабль

Другие торренты по теме:

  • Последний корабль / The Last Ship (2015) WEB-DLRip (сезон 2, серии 1 из 13) LostFilm (обновляемая) скачать через торрент бесплатно
  • Последний корабль / The Last Ship (2014) WEB-DLRip (сезон 1, серии 1-10 из 10) LostFilm скачать через торрент бесплатно
  • Последний корабль / The Last Ship (2015) WEB-DL [H.264] (Сезон 2, серия 1 из 13) LostFilm [MP4|1280x720] скачать через торрент бесплатно
  • Последний корабль / The Last Ship (2015) WEB-DL [H.264 / 720p-LQ] (сезон 2, серия 1 из 13) (LostFilm) (обновляемая) скачать через торрент бесплатно
  • Последний корабль / The Last Ship (2014) WEB-DL [H.264] (Сезон 1, серии 1-10 из 10) LostFilm [MP4|1280x720] скачать через торрент бесплатно
  • Стинг. Когда уходит последний корабль. Концерт в театре Джозефа Паппа. Нью-Йорк / Sting The Last Ship. Live At The Public Theater (2013) DVB
  • Последний корабль / The Last.Ship (2016) HDTV [H.264 / 720p-LQ] (сезон 3, серии 1-2 из 13) ColdFilm ( обновляемая )
  • Последний корабль / The Last Ship (2016) HDTV [H.264 / 720p-LQ] (сезон 3, серии 1 из 13) BaibaKo ( обновляемая )

  • Посетители, находящиеся в группе Гости, не могут оставлять комментарии в данной новости.