Подписывайся на наш канал в Telegram https://t.me/torrentok и получи доступ к торрентам без ограничений!

Последний корабль / The Last Ship (2016) HDTVRip (сезон 3, серии 1 из 13) OMSKBIRD records (обновляемая) торрент скачать бесплатно

Последний корабль / The Last Ship (2016) HDTVRip (сезон 3, серии 1 из 13) OMSKBIRD records (обновляемая)Производство: США
Жанр: Фантастика, Драма, Боевик
Режиссер: Джек Бендер, Пол Холахан, Серджо Мимика-Геззан

Актеры
Рона Митра, Эрик Дэйн, Адам Болдуин, Трэвис Ван Винкл, Джоко Симс, Чарльз Парнелл, Марисса Нейтлинг, Кристина Элмор, Джон Пайпер-Фергюсон, Кевин Майкл Мартин и другие

Описание

Глобальная пандемия уничтожает восемьдесят процентов населения планеты. Военный эсминец Соединенных Штатов отправляется в долгое путешествие с единственной задачей — выживать ровно столько, сколько потребуется для создания вакцины. Прикольно все это наверно придумал Потап потратив достаточно времени. И таким образом спасти человечество от вымирания.

Релиз от: OMSKBIRD records
Продолжительность: ~00: 42: 00
Качество видео: HDTVRip
Перевод: Многоголосый закадровый, профессиональный
Озвучка/Автор перевода: OMSKBIRD records
Вид субтитров: Отсутствуют
Реклама: присутствуют аудио вставки рекламы
Видео: XviD, 720x400 (16: 9), ~2000 kbps
Аудио # rus: AC3, 6 ch, 384 kbps, CBR
Аудио # eng: AC3, 6 ch, 384 kbps, CBR Код:
General
Complete name : G:FilmsThe.Last.Ship.S03.400p.OmskBirdThe.Last.Ship.S03E01.400p.HDTVRip.OmskBird.avi
Format : AVI
Format/Info : Audio Video Interleave
File size : 835 MiB
Duration : 41mn 56s
Overall bit rate : 2 784 Kbps
Writing application : VirtualDubMod 1.5.10.3 (build 2550/release)
Writing library : VirtualDubMod build 2550/release
Video
ID : 0
Format : MPEG-4 Visual
Format profile : Advanced [email protected]
Format settings, BVOP : 1
Format settings, QPel : No
Format settings, GMC : No warppoints
Format settings, Matrix : Default (MPEG)
Codec ID : XVID
Codec ID/Hint : XviD
Duration : 41mn 56s
Bit rate : 2 003 Kbps
Width : 720 pixels
Height : 400 pixels
Display aspect ratio : 16:9
Frame rate : 23.976 (23976/1000) fps
Color space : YUV
Chroma subsampling : 4:2:0
Bit depth : 8 bits
Scan type : Progressive
Compression mode : Lossy
Bits/(Pixel*Frame) : 0.290
Stream size : 601 MiB (72%)
Writing library : XviD 73
Audio #1
ID : 1
Format : AC-3
Format/Info : Audio Coding 3
Mode extension : CM (complete main)
Format settings, Endianness : Big
Codec ID : 2000
Duration : 41mn 56s
Bit rate mode : Constant
Bit rate : 384 Kbps
Channel(s) : 6 channels
Channel positions : Front: L C R, Side: L R, LFE
Sampling rate : 48.0 KHz
Frame rate : 31.250 fps (1536 spf)
Compression mode : Lossy
Stream size : 115 MiB (14%)
Alignment : Split accross interleaves
Interleave, duration : 42 ms (1.00 video frame)
Interleave, preload duratio : 500 ms
Audio #2
ID : 2
Format : AC-3
Format/Info : Audio Coding 3
Mode extension : CM (complete main)
Format settings, Endianness : Big
Codec ID : 2000
Duration : 41mn 56s
Bit rate mode : Constant
Bit rate : 384 Kbps
Channel(s) : 6 channels
Channel positions : Front: L C R, Side: L R, LFE
Sampling rate : 48.0 KHz
Frame rate : 31.250 fps (1536 spf)
Compression mode : Lossy
Stream size : 115 MiB (14%)
Alignment : Split accross interleaves
Interleave, duration : 42 ms (1.00 video frame)
Interleave, preload duratio : 500 ms


Скриншоты для ознакомления




Онлайн видео Последний корабль

Другие торренты по теме:

  • Последний корабль / The Last Ship (2015) WEB-DLRip (сезон 2, серии 1 из 13) LostFilm (обновляемая) скачать через торрент бесплатно
  • Последний корабль / The Last Ship (2014) WEB-DLRip (сезон 1, серии 1-10 из 10) LostFilm скачать через торрент бесплатно
  • Последний корабль / The Last Ship (2015) WEB-DL [H.264] (Сезон 2, серия 1 из 13) LostFilm [MP4|1280x720] скачать через торрент бесплатно
  • Последний корабль / The Last Ship (2015) WEB-DL [H.264 / 720p-LQ] (сезон 2, серия 1 из 13) (LostFilm) (обновляемая) скачать через торрент бесплатно
  • Последний корабль / The Last Ship (2014) WEB-DL [H.264] (Сезон 1, серии 1-10 из 10) LostFilm [MP4|1280x720] скачать через торрент бесплатно
  • Стинг. Когда уходит последний корабль. Концерт в театре Джозефа Паппа. Нью-Йорк / Sting The Last Ship. Live At The Public Theater (2013) DVB
  • Последний корабль / The Last.Ship (2016) HDTV [H.264 / 720p-LQ] (сезон 3, серии 1-2 из 13) ColdFilm ( обновляемая )
  • Последний корабль / The Last Ship (2016) HDTV [H.264 / 720p-LQ] (сезон 3, серии 1 из 13) BaibaKo ( обновляемая )

  • Посетители, находящиеся в группе Гости, не могут оставлять комментарии в данной новости.