Подписывайся на наш канал в Telegram https://t.me/torrentok и получи доступ к торрентам без ограничений!

Смерть мозга / Безмозглые / BrainDead (2016) HDTVRip (сезон 1, серии 1 из 13) OMSKBIRD (обновляемая) торрент скачать бесплатно

Смерть мозга / Безмозглые / BrainDead (2016) HDTVRip (сезон 1, серии 1 из 13) OMSKBIRD (обновляемая)Производство: США/CBS
Жанр: фантастика, драма, комедия
Режиссер: Роберт Кинг

Актеры
Мэри Элизабет Уинстэд, Жан Максвелл, Бет Мэлоун, Чарльз Семине, Хэппи Андерсон, Джонни Гилл, Меган Хилти и др.

Описание

Сериал сфокусируется на молодой стажерке Конгресса, которая только переехала в Вашингтон и приступила к работе в Капитолии.
Очень скоро главной героине предстоит сделать два невероятных открытия:
1. Правительство США перестало работать.
2. Инопланетяне прибыли на Землю и питаются мозгом растущего числа конгрессменов и сотрудников Капитолия.

Продолжительность: ~00: 44: 00 серия
Качество видео: HDTV
Перевод: Многоголосый закадровый, профессиональный | OMSKBIRD
Реклама: присутствуют аудио вставки рекламы.
Видео: Xvid, 720x400, ~1483 kbps
Аудио # 1 Rus: AC-3, 6 ch, 384 kbps, CBR - многоголосый закадровый
Аудио # 2 Eng: AC-3, 6 ch, 384 kbps, CBR - оригинал Код:
General
Complete name : F:Мои ДокументыВидеоРАЗДАЧИБрэйнДедBrainDead S01 HDTVRip (OMSKBIRD)BrainDead S01E01 HDTVRip (OMSKBIRD).avi
Format : AVI
Format/Info : Audio Video Interleave
File size : 707 MiB
Duration : 43mn 39s
Overall bit rate : 2 265 Kbps
Writing application : VirtualDubMod 1.5.10.3 |www.virtualdub-fr.org|| (build 2550/release)
Writing library : VirtualDubMod build 2550/release
Video
ID : 0
Format : MPEG-4 Visual
Format profile : Advanced [email protected]
Format settings, BVOP : 1
Format settings, QPel : No
Format settings, GMC : No warppoints
Format settings, Matrix : Default (MPEG)
Codec ID : XVID
Codec ID/Hint : XviD
Duration : 43mn 39s
Bit rate : 1 483 Kbps
Width : 720 pixels
Height : 400 pixels
Display aspect ratio : 16:9
Frame rate : 23.976 fps
Color space : YUV
Chroma subsampling : 4:2:0
Bit depth : 8 bits
Scan type : Progressive
Compression mode : Lossy
Bits/(Pixel*Frame) : 0.215
Stream size : 463 MiB (65%)
Writing library : XviD 1.2.1 (UTC 2008-12-04)
Audio #1
ID : 1
Format : AC-3
Format/Info : Audio Coding 3
Mode extension : CM (complete main)
Format settings, Endianness : Big
Codec ID : 2000
Duration : 43mn 39s
Bit rate mode : Constant
Bit rate : 384 Kbps
Channel(s) : 6 channels
Channel positions : Front: L C R, Side: L R, LFE
Sampling rate : 48.0 KHz
Bit depth : 16 bits
Compression mode : Lossy
Stream size : 120 MiB (17%)
Alignment : Split accross interleaves
Interleave, duration : 42 ms (1.00 video frame)
Interleave, preload duration : 500 ms
Audio #2
ID : 2
Format : AC-3
Format/Info : Audio Coding 3
Mode extension : CM (complete main)
Format settings, Endianness : Big
Codec ID : 2000
Duration : 43mn 39s
Bit rate mode : Constant
Bit rate : 384 Kbps
Channel(s) : 6 channels
Channel positions : Front: L C R, Side: L R, LFE
Sampling rate : 48.0 KHz
Bit depth : 16 bits
Compression mode : Lossy
Stream size : 120 MiB (17%)
Alignment : Split accross interleaves
Interleave, duration : 42 ms (1.00 video frame)
Interleave, preload duration : 500 ms


Скриншоты для ознакомления




Онлайн видео Смерть мозга

Другие торренты по теме:

  • Смерть мозга / Безмозглые / BrainDead (2016) HDTVRip [H.264 / 720p-LQ] (сезон 1, серии 1 из 13) OMSKBIRD (обновляемая)
  • Безмозглые / Смерть мозга / BrainDead (2016) WEBRip (сезон 1, серии 1 из 13) LostFilm (обновляемая)
  • Безмозглые / Смерть мозга / BrainDead (2016) HDTVRip [H.264] (сезон 1, серии 1 из 13) RATTLEBOX [MP4|1920х1080] (обновляемая)
  • Сэм Кин | Дуэль нейрохирургов. Как открывали тайны мозга, и почему смерть одного короля смогла перевернуть науку (2014) [FB2, RTF, PDF] скачать через торрент бесплатно

  • Посетители, находящиеся в группе Гости, не могут оставлять комментарии в данной новости.
    Для авторских прав
    Вход на сайт
    Навигация
    Популярное