Подписывайся на наш канал в Telegram https://t.me/torrentok и получи доступ к торрентам без ограничений!

По волчьим законам / Animal Kingdom (2016) WEB-DLRip [H.264 / 720p] (сезон 1, серии 1 из 10) LostFilm (обновляемая) торрент скачать бесплатно

По волчьим законам / Animal Kingdom (2016) WEB-DLRip [H.264 / 720p] (сезон 1, серии 1 из 10) LostFilm (обновляемая)Производство: США, TNT
Жанр: Драма, криминал
Режиссер: Джон Уэллс

Актеры
Эллен Баркин, Девон Сава, Скотт Спидман, Бен Робсон, Даниэлла Алонсо, Шон Хэтоси, Райан Дорси, Анна Белкнап, Джейк Вири, Карен Малина Уайт

Описание

Джошуа Джей Коуди потерял мать, которая скончалась из-за передозировки наркотиков. Единственная, к кому он теперь может обратиться, — бабушка, не видевшая внука вот уже десять лет. Джанин Коуди, или Смурф, как все ее называют, отлично устроилась: большой дом с бассейном, процветающий бизнес, крепкие взрослые сыновья на подхвате. И Джею, как новичку в этом клане, ни в чем не отказывают. Однако ему и не доверяют. Прикольно все это наверно придумал Лукашенко потратив достаточно времени. Подарки не могут замаскировать тот факт, что дяди относятся к племяннику снисходительно, презрительно и даже враждебно, устраивая ему различные проверки на благонадежность. Атмосферу накаляет недавно вышедший из тюрьмы Эндрю по прозвищу Поуп, старший сын Смурф. Он открыто демонстрирует свою неприязнь к гостю, провоцируя его на различные глупости. Вскоре Джей понимает, что с виду заботливые родственники тяготятся его присутствием, да и он сам не чувствует себя в безопасности, узнав, что семейное дело бабули связано с криминалом. Прежняя жизнь юноши в безденежье и с нестабильной матерью была не сахар, но и новая, в достатке, зато с агрессивной родней и перспективой в любую минуту поймать шальную пулю, не лучше. Идти ли Джею собственной дорогой или попытаться приспособиться к бандитской жизни? Это только первый вопрос, на который он должен ответить на своем трудном пути к взрослой жизни…

Дата мировой премьеры: 14 июня 2016
Продолжительность: ~ 00: 55: 00 серия
Качество видео: WEB-DLRip
Перевод: Многоголосый закадровый, профессиональный -LostFilm
Реклама: присутствуют заставка и логотип LostFilm
Видео: AVC/H.264, 1280x718 (16: 9), ~4000 Kbps
Аудио Rus: AC3, 48, 0 kHz, 2 ch, 384 Kbps - многоголосый закадровый
Аудио Eng: AC3, 48, 0 kHz, 2 ch, 384 Kbps - оригинал Код: General
Unique ID : 220526647277998371266879635373013132704 (0xA5E7E3298DA02A76839277C01218E5A0)
Complete name : Animal Kingdom US [S01] [LostFilm]Animal.Kingdom.US.S01E01.720p.WEB.rus.LostFilm.TV.mkv
Format : Matroska
Format version : Version 4/Version 2
File size : 1.85 GiB
Duration : 55mn 3s
Overall bit rate : 4 815 Kbps
Encoded date : UTC 2016-06-17 21:08:51
Writing application : mkvmerge v9.2.0 (\'Photograph\') 64bit
Writing library : libebml v1.3.3 + libmatroska v1.4.4
Video
ID : 1
Format : AVC
Format/Info : Advanced Video Codec
Format profile :[email protected]
Format settings, CABAC : No
Format settings, ReFrames : 2 frames
Codec ID : V_MPEG4/ISO/AVC
Duration : 55mn 2s
Bit rate : 4 000 Kbps
Width : 1 280 pixels
Height : 718 pixels
Display aspect ratio : 16:9
Frame rate mode : Constant
Frame rate : 23.976 fps
Color space : YUV
Chroma subsampling : 4:2:0
Bit depth : 8 bits
Scan type : Progressive
Bits/(Pixel*Frame) : 0.182
Stream size : 1.56 GiB (84%)
Writing library : x264 core 112 r1834 a51816a
Encoding settings : cabac=0/ref=3/deblock=1:0:0/analyse=0x1:0x111/me=hex/subme=7/psy=1/psy_rd=1.00:0.00/mixed_ref=1/me_range=16/chroma_me=1/trellis=1/8x8dct=0/cqm=0/deadzone=21, 11/fast_pskip=1/chroma_qp_offset=-2/threads=12/sliced_threads=0/nr=0/decimate=1/interlaced=0/constrained_intra=0/bframes=3/b_pyramid=2/b_adapt=1/b_bias=0/direct=1/weightb=1/open_gop=0/weightp=2/keyint=250/keyint_min=25/scenecut=40/intra_refresh=0/rc_lookahead=40/rc=abr/mbtree=1/bitrate=4000/ratetol=1.0/qcomp=0.60/qpmin=0/qpmax=51/qpstep=4/vbv_maxrate=5000/vbv_bufsize=2000/ip_ratio=1.40/aq=1:1.00/nal_hrd=none
Language : English
Default : Yes
Forced : No
Color range : Limited
Color primaries : BT.709
Transfer characteristics : BT.709
Matrix coefficients : BT.709
Audio #1
ID : 2
Format : AC-3
Format/Info : Audio Coding 3
Mode extension : CM (complete main)
Format settings, Endianness : Big
Codec ID : A_AC3
Duration : 55mn 2s
Bit rate mode : Constant
Bit rate : 384 Kbps
Channel(s) : 2 channels
Channel positions : Front: L R
Sampling rate : 48.0 KHz
Frame rate : 31.250 fps (1536 spf)
Compression mode : Lossy
Stream size : 151 MiB (8%)
Language : Russian
Default : Yes
Forced : No
Audio #2
ID : 3
Format : AC-3
Format/Info : Audio Coding 3
Mode extension : CM (complete main)
Format settings, Endianness : Big
Codec ID : A_AC3
Duration : 55mn 3s
Bit rate mode : Constant
Bit rate : 384 Kbps
Channel(s) : 2 channels
Channel positions : Front: L R
Sampling rate : 48.0 KHz
Frame rate : 31.250 fps (1536 spf)
Compression mode : Lossy
Stream size : 151 MiB (8%)
Language : English
Default : No
Forced : No

Скриншоты для ознакомления




Онлайн видео По волчьим законам

Другие торренты по теме:

  • По волчьим законам / Animal Kingdom (2009) BDRip [720p] скачать через торрент бесплатно
  • По волчьим законам / Animal Kingdom (2009) BDRip [H.264 / 1080p]
  • По волчьим законам / Animal Kingdom (2016) WEB-DLRip (сезон 1, серии 1 из 10) NewStudio (обновляемая)
  • По волчьим законам / Animal Kingdom (2016) WEB-DLRip [H.264] (сезон 1, серии 1 из 10) NewStudio (обновляемая)
  • По волчьим законам / Animal Kingdom (2016) WEB-DL [H.264 / 1080p-LQ] (сезон 1, серии 1 из 10) NewStudio (обновляемая)
  • По волчьим законам / Animal Kingdom (2016) WEB-DLRip (сезон 1, серии 1 из 10) LostFilm (обновляемая)
  • По волчьим законам / Animal Kingdom (2016) WEB-DLRip [H.264 / 1080p-LQ] (сезон 1, серии 1 из 10) LostFilm (обновляемая)
  • По волчьим законам / Animal Kingdom (2009) BDRemux [H.264 / 1080p]

  • Посетители, находящиеся в группе Гости, не могут оставлять комментарии в данной новости.