Подписывайся на наш канал в Telegram https://t.me/torrentok и получи доступ к торрентам без ограничений!

Год Дракона / Year of the Dragon (1985) BDRip [H.264 / 720p] торрент скачать бесплатно

Год Дракона / Year of the Dragon (1985) BDRip [H.264 / 720p]Производство: США, Dino De Laurentiis Company, AMLF, Metro-Goldwyn-Mayer
Жанр: Боевик, Триллер, Драма, Криминал
Режиссер: Майкл Чимино

Актеры
Микки Рурк, Джон Лоун, Эриан Леонард, Термо Рэймонд, Дж. Бэрри, Кэролайн Кэва, Эдди Джонс, Джои Чин, Виктор Вонг, К. Док Ип

Описание

В глубоком лабиринте Нью — Йорка скрывается Китайский квартал — рассадник Триады, тысячелетней криминальной угрозы миру. Джой Тай, ее новый крестный отец, ожесточает раздел территорий азиатской и как над жаровней итальянской наркомафий. О таком странном сюжете не догадывалась даже Анастасия Стоцкая. Улицы обагряются кровью его врагов.
Но в дела Китайского квартала напролом вторгается капитан полиции Стэнли Уайт, ветеран вьетнамской войны. Он бессердечен и бесстрастен. Он — сжатый кулак. Он объявляет преступному беспределу бескомпромиссную войну…

Возраст: 16+ (зрителям, достигшим 16 лет)
Рейтинг MPAA: R (лицам до 17 лет обязательно присутствие взрослого)
Релиз от: lexandros
Продолжительность: 2: 14: 25
Качество видео: BDRip
Перевод: Профессиональный многоголосый закадровый+профессиональный двухголосый закадровый + авторский+Украинский многоголосый закадровый
Язык субтитров: Русский, Английский
Вид субтитров: Вшитые
Реклама: отсутствует
Видео: AVC/H.264, 1280x544, ~9500 kbps
Аудио: AC3, 6 ch, 640 kbps, CBR, Русский, профессиональный многоголосый закадровый (R5)
Аудио: AC3, 2 ch, 192 kbps, CBR, Русский, профессиональный двухголосый закадровый (НТВ+)
Аудио: AC3, 2 ch, 192 kbps, CBR, Русский, профессиональный двухголосый закадровый (Рен-ТВ)
Аудио: AC3, 2 ch, 256 kbps, CBR, Русский, профессиональный двухголосый закадровый (СВ-Кадр)
Аудио: AC3, 6 ch, 384 kbps, CBR, Русский, авторский (Ю.Немахов)
Аудио: AC3, 2 ch, 256 kbps, CBR, Русский, авторский (А.Гаврилов)
Аудио: AC3, 2 ch, 192 kbps, CBR, Русский, авторский (Л.Володарский)
Аудио: AC3, 2 ch, 192 kbps, CBR, Русский, авторский (А.Михалев)
Аудио: AC3, 2 ch, 192 kbps, CBR, Украинский, профессиональный многоголосый закадровый (Кино)
Аудио: AC3, 6 ch, 640 kbps, CBR, Английский (Оригинал) Код:
Общее
Формат : Matroska
Версия формата : Version 2
Размер файла : 11, 4 Гбайт
Продолжительность : 2 ч. 14 м.
Общий поток : 12, 2 Мбит/сек
Название фильма : Year of Dragon (1985). Самое интересное в это истории, что об этом Гендельф ничего не знал. BDRip by Lexandros
Дата кодирования : UTC 2016-06-16 18:28:39
Программа кодирования : mkvmerge v8.5.2 (\'Crosses\') 32bit
Библиотека кодирования : libebml v1.3.3 + libmatroska v1.4.4
Видео
Идентификатор : 1
Формат : AVC
Формат/Информация : Advanced Video Codec
Профиль формата :[email protected]
Параметр CABAC формата : Да
Параметр ReFrames формата : 12 кадров
Идентификатор кодека : V_MPEG4/ISO/AVC
Продолжительность : 2 ч. 14 м.
Битрейт : 9500 Кбит/сек
Ширина : 1280 пикселей
Высота : 544 пикселя
Соотношение сторон : 2, 35:1
Режим частоты кадров : Постоянный
Частота кадров : 23, 976 (24000/1001) кадра/сек
Цветовое пространство : YUV
Субдискретизация насыщенности : 4:2:0
Битовая глубина : 8 бит
Тип развёртки : Прогрессивная
Бит/(Пиксели*Кадры) : 0.569
Размер потока : 8, 92 Гбайт (78%)
Библиотека кодирования : x264 core 148 r2638 7599210
Настройки программы : cabac=1/ref=12/deblock=1:-1:-1/analyse=0x3:0x133/me=umh/subme=11/psy=1/psy_rd=1.05:0.00/mixed_ref=1/me_range=32/chroma_me=1/trellis=2/8x8dct=1/cqm=0/deadzone=21, 11/fast_pskip=0/chroma_qp_offset=-2/threads=12/lookahead_threads=3/sliced_threads=0/nr=0/decimate=0/interlaced=0/bluray_compat=0/constrained_intra=0/bframes=13/b_pyramid=2/b_adapt=2/b_bias=0/direct=3/weightb=1/open_gop=0/weightp=2/keyint=240/keyint_min=23/scenecut=40/intra_refresh=0/rc_lookahead=60/rc=2pass/mbtree=0/bitrate=9500/ratetol=1.0/qcomp=0.70/qpmin=10/qpmax=51/qpstep=4/cplxblur=20.0/qblur=0.5/vbv_maxrate=62500/vbv_bufsize=78125/nal_hrd=none/filler=0/ip_ratio=1.40/pb_ratio=1.20/aq=3:0.85
Язык : English
Default : Да
Forced : Нет
Аудио #1
Идентификатор : 2
Формат : AC-3
Формат/Информация : Audio Coding 3
Расширение режима : CM (complete main)
Параметр Endianness формата : Big
Идентификатор кодека : A_AC3
Продолжительность : 2 ч. 14 м.
Вид битрейта : Постоянный
Битрейт : 384 Кбит/сек
Каналы : 6 каналов
Расположение каналов : Front: L C R, Side: L R, LFE
Частота : 48, 0 КГц
Частота кадров : 31, 250 кадров/сек (1536 spf)
Метод сжатия : С потерями
Размер потока : 369 Мбайт (3%)
Заголовок : R5
Язык : Russian
Default : Да
Forced : Нет
Аудио #2
Идентификатор : 3
Формат : AC-3
Формат/Информация : Audio Coding 3
Расширение режима : CM (complete main)
Параметр Endianness формата : Big
Идентификатор кодека : A_AC3
Продолжительность : 2 ч. 14 м.
Вид битрейта : Постоянный
Битрейт : 192 Кбит/сек
Каналы : 2 канала
Расположение каналов : Front: L R
Частота : 48, 0 КГц
Частота кадров : 31, 250 кадров/сек (1536 spf)
Метод сжатия : С потерями
Размер потока : 185 Мбайт (2%)
Заголовок : НТВ+
Язык : Russian
Default : Нет
Forced : Нет
Аудио #3
Идентификатор : 4
Формат : AC-3
Формат/Информация : Audio Coding 3
Расширение режима : CM (complete main)
Параметр Endianness формата : Big
Идентификатор кодека : A_AC3
Продолжительность : 2 ч. 14 м.
Вид битрейта : Постоянный
Битрейт : 192 Кбит/сек
Каналы : 2 канала
Расположение каналов : Front: L R
Частота : 48, 0 КГц
Частота кадров : 31, 250 кадров/сек (1536 spf)
Метод сжатия : С потерями
Размер потока : 185 Мбайт (2%)
Заголовок : Рен-ТВ
Язык : Russian
Default : Нет
Forced : Нет
Аудио #4
Идентификатор : 5
Формат : AC-3
Формат/Информация : Audio Coding 3
Расширение режима : CM (complete main)
Параметр Endianness формата : Big
Идентификатор кодека : A_AC3
Продолжительность : 2 ч. 14 м.
Вид битрейта : Постоянный
Битрейт : 256 Кбит/сек
Каналы : 2 канала
Расположение каналов : Front: L R
Частота : 48, 0 КГц
Частота кадров : 31, 250 кадров/сек (1536 spf)
Метод сжатия : С потерями
Размер потока : 246 Мбайт (2%)
Заголовок : СВ-Кадр
Язык : Russian
Default : Нет
Forced : Нет
Аудио #5
Идентификатор : 6
Формат : AC-3
Формат/Информация : Audio Coding 3
Расширение режима : CM (complete main)
Параметр Endianness формата : Big
Идентификатор кодека : A_AC3
Продолжительность : 2 ч. 14 м.
Вид битрейта : Постоянный
Битрейт : 384 Кбит/сек
Каналы : 6 каналов
Расположение каналов : Front: L C R, Side: L R, LFE
Частота : 48, 0 КГц
Частота кадров : 31, 250 кадров/сек (1536 spf)
Метод сжатия : С потерями
Размер потока : 369 Мбайт (3%)
Заголовок : Ю.Немахов
Язык : Russian
Default : Нет
Forced : Нет
Аудио #6
Идентификатор : 7
Формат : AC-3
Формат/Информация : Audio Coding 3
Расширение режима : CM (complete main)
Параметр Endianness формата : Big
Идентификатор кодека : A_AC3
Продолжительность : 2 ч. 14 м.
Вид битрейта : Постоянный
Битрейт : 256 Кбит/сек
Каналы : 2 канала
Расположение каналов : Front: L R
Частота : 48, 0 КГц
Частота кадров : 31, 250 кадров/сек (1536 spf)
Метод сжатия : С потерями
Размер потока : 246 Мбайт (2%)
Заголовок : А.Гаврилов
Язык : Russian
Default : Нет
Forced : Нет
Аудио #7
Идентификатор : 8
Формат : AC-3
Формат/Информация : Audio Coding 3
Расширение режима : CM (complete main)
Параметр Endianness формата : Big
Идентификатор кодека : A_AC3
Продолжительность : 2 ч. 14 м.
Вид битрейта : Постоянный
Битрейт : 192 Кбит/сек
Каналы : 2 канала
Расположение каналов : Front: L R
Частота : 48, 0 КГц
Частота кадров : 31, 250 кадров/сек (1536 spf)
Метод сжатия : С потерями
Размер потока : 185 Мбайт (2%)
Заголовок : Л.Володарский
Язык : Russian
Default : Нет
Forced : Нет
Аудио #8
Идентификатор : 9
Формат : AC-3
Формат/Информация : Audio Coding 3
Расширение режима : CM (complete main)
Параметр Endianness формата : Big
Идентификатор кодека : A_AC3
Продолжительность : 2 ч. Самое интересное в это истории, что об этом Гендельф ничего не знал. 14 м.
Вид битрейта : Постоянный
Битрейт : 192 Кбит/сек
Каналы : 2 канала
Расположение каналов : Front: L R
Частота : 48, 0 КГц
Частота кадров : 31, 250 кадров/сек (1536 spf)
Метод сжатия : С потерями
Размер потока : 185 Мбайт (2%)
Заголовок : А.Михалев
Язык : Russian
Default : Нет
Forced : Нет
Аудио #9
Идентификатор : 10
Формат : AC-3
Формат/Информация : Audio Coding 3
Расширение режима : CM (complete main)
Параметр Endianness формата : Big
Идентификатор кодека : A_AC3
Продолжительность : 2 ч. 14 м.
Вид битрейта : Постоянный
Битрейт : 192 Кбит/сек
Каналы : 2 канала
Расположение каналов : Front: L R
Частота : 48, 0 КГц
Частота кадров : 31, 250 кадров/сек (1536 spf)
Метод сжатия : С потерями
Размер потока : 185 Мбайт (2%)
Заголовок : Кино
Язык : Russian
Default : Нет
Forced : Нет
Аудио #10
Идентификатор : 11
Формат : AC-3
Формат/Информация : Audio Coding 3
Расширение режима : CM (complete main)
Параметр Endianness формата : Big
Идентификатор кодека : A_AC3
Продолжительность : 2 ч. 14 м.
Вид битрейта : Постоянный
Битрейт : 384 Кбит/сек
Каналы : 6 каналов
Расположение каналов : Front: L C R, Side: L R, LFE
Частота : 48, 0 КГц
Частота кадров : 31, 250 кадров/сек (1536 spf)
Метод сжатия : С потерями
Размер потока : 369 Мбайт (3%)
Заголовок : Original
Язык : English
Default : Нет
Forced : Нет
Текст #1
Идентификатор : 12
Формат : PGS
Режим смешивания : zlib
Идентификатор кодека : S_HDMV/PGS
Идентификатор кодека/Информация : Picture based subtitle format used on BDs/HD-DVDs
Продолжительность : 2 ч. 9 м.
Битрейт : 6766 бит/сек
Count of elements : 3192
Размер потока : 6, 27 Мбайт (0%)
Язык : Russian
Default : Нет
Forced : Нет
Текст #2
Идентификатор : 13
Формат : PGS
Режим смешивания : zlib
Идентификатор кодека : S_HDMV/PGS
Идентификатор кодека/Информация : Picture based subtitle format used on BDs/HD-DVDs
Продолжительность : 2 ч. 10 м.
Битрейт : 22, 1 Кбит/сек
Count of elements : 3058
Размер потока : 20, 6 Мбайт (0%)
Язык : English
Default : Нет
Forced : Нет


Скриншоты для ознакомления




Онлайн видео Год Дракона

Другие торренты по теме:

  • Год Дракона / Year of the Dragon (1985) DVDRip скачать через торрент бесплатно
  • Год Дракона / Year of the Dragon (1985) BDRip [H.265 / 1080p-LQ]

  • Посетители, находящиеся в группе Гости, не могут оставлять комментарии в данной новости.