Подписывайся на наш канал в Telegram https://t.me/torrentok и получи доступ к торрентам без ограничений!

Безмозглые / Смерть мозга / BrainDead (2016) WEBRip (сезон 1, серии 1 из 13) LostFilm (обновляемая) торрент скачать бесплатно

Безмозглые / Смерть мозга / BrainDead (2016) WEBRip (сезон 1, серии 1 из 13) LostFilm (обновляемая)Производство: США/Scott Free Productions, King Size Productions, CBS Television Studios
Жанр: ужасы, фантастика, драма, комедия
Режиссер: Джим МакКэй, Роберт Кинг

Актеры
Мэри Элизабет Уинстэд, Бет Мэлоун, Жан Максвелл, Дэниэл Пино, Аарон Твейт, Тони Шэлуб, Меган Хилти, Пейдж Паттерсон, Чарльз Семине, Зэк Гренье и др.

Описание

В центре сюжета оказывается весьма серьезное событие, которое при этом может вызвать смех. Молодой человек по имени Хил оказывается настоящим счастливчиком — ему уготовано служить на Правительство США. Однако главный герой на первых радостях назначения на столь ответственную должность, сталкивается с неприятностями. Он выясняет, что по сути американского правительства не существует в принципе. К тому же Хилл становится свидетелем нападения на Землю инопланетян, которые через свою икру просачиваются в тела конгрессменов и контролируют их разум. Что же теперь делать? Расскажешь кому — сразу отправят в дурку. Придется Хилу все разруливать самому.

Дата мировой премьеры: 13 июня 2016
Продолжительность: ~00: 44: 00 серия
Качество видео: WEBRip
Перевод: Многоголосый закадровый, профессиональный -LostFilm
Реклама: присутствуют заставка и логотип LostFilm.
Видео: XviD, 720x400 (16: 9), ~976 kb/s
Аудио Rus: MPEG Layer 3, 48, 0 kHz, 2 ch, 192 kb/s — многоголосый закадровый Код:
Общее
Полное имя : D:Безмозглые (сезон любимого сериала 1) BrainDead (2016) WEBRip - LostFilmBraindead.S01E01.rus.LostFilm.TV.avi
Формат : AVI
Формат/Информация : Audio Video Interleave
Размер файла : 369 Мбайт
Продолжительность : 43 м.
Режим общего битрейта : Переменный
Общий поток : 1178 Кбит/сек
Программа кодирования : Nandub v1.0rc2
Библиотека кодирования : Nandub build 1853/release
Видео
Идентификатор : 0
Формат : MPEG-4 Visual
Профиль формата : Advanced [email protected]
Параметр BVOP формата : Нет
Параметр QPel формата : Нет
Параметр GMC формата : Без точки перехода
Параметр матрицы формата : Default (H.263)
Идентификатор кодека : XVID
Идентификатор кодека/Подсказка : XviD
Продолжительность : 43 м.
Битрейт : 976 Кбит/сек
Ширина : 720 пикселей
Высота : 400 пикселей
Соотношение сторон : 16:9
Частота кадров : 23, 976 (23976/1000) кадра/сек
Цветовое пространство : YUV
Субдискретизация насыщенности : 4:2:0
Битовая глубина : 8 бит
Тип развёртки : Прогрессивная
Метод сжатия : С потерями
Бит/(Пиксели*Кадры) : 0.141
Размер потока : 306 Мбайт (83%)
Библиотека кодирования : XviD 1.2.1 (UTC 2008-12-04)
Аудио
Идентификатор : 1
Формат : MPEG Audio
Версия формата : Version 1
Профиль формата : Layer 3
Режим : Joint stereo
Расширение режима : MS Stereo
Идентификатор кодека : 55
Идентификатор кодека/Подсказка : MP3
Продолжительность : 43 м.
Вид битрейта : Переменный
Битрейт : 192 Кбит/сек
Каналы : 2 канала
Частота : 48, 0 КГц
Метод сжатия : С потерями
Размер потока : 59, 3 Мбайт (16%)
Выравнивание : Соединение по промежуткам
Продолжительность промежутка : 24 мс. (0, 58 видеокадр)
Время предзагрузки промежутка : 438 мс.
Библиотека кодирования : LAME3.97b
Настройки программы : -m j -V 4 -q 3 -lowpass 18.6 --abr 192


Скриншоты для ознакомления




Онлайн видео Безмозглые

Другие торренты по теме:

  • Безмозглые / Смерть мозга / BrainDead (2016) HDTVRip [H.264] (сезон 1, серии 1 из 13) RATTLEBOX [MP4|1920х1080] (обновляемая)
  • Смерть мозга / Безмозглые / BrainDead (2016) HDTVRip [H.264 / 720p-LQ] (сезон 1, серии 1 из 13) OMSKBIRD (обновляемая)
  • Смерть мозга / Безмозглые / BrainDead (2016) HDTVRip (сезон 1, серии 1 из 13) OMSKBIRD (обновляемая)

  • Посетители, находящиеся в группе Гости, не могут оставлять комментарии в данной новости.