Подписывайся на наш канал в Telegram https://t.me/torrentok и получи доступ к торрентам без ограничений!

По волчьим законам / Animal Kingdom (2016) WEB-DLRip (сезон 1, серии 1 из 10) LostFilm (обновляемая) торрент скачать бесплатно

По волчьим законам / Animal Kingdom (2016) WEB-DLRip (сезон 1, серии 1 из 10) LostFilm (обновляемая)Производство: США
Жанр: драма, криминал
Режиссер: Джон Уэллс

Актеры
Эллен Баркин, Девон Сава, Скотт Спидман, Бен Робсон, Даниэлла Алонсо, Шон Хэтоси, Райан Дорси, Анна Белкнап, Джейк Вири, Карен Малина Уайт и др.

Описание фильма

На создание сериала авторов вдохновил одноимённый австралийский фильм Дэвида Мишо 2010 года. Это история о том, как 17-летний Джошуа Коди после смерти матери переезжает к своей родне в пляжный городок в Южной Калифорнии. Глава семьи Джанин Коди руководит семейным делом. Главный её помощник — старший из братьев Коди по имени Поуп. Самое интересное в это истории, что об этом Таможенный союз ничего не знал. Остальные сыновья тоже помогают матери по мере сил. Вскоре Джошуа понимает, что фамильный бизнес связан с криминалом и что теперь он волей-неволей сделался частью этого нового для него смертельно опасного мира.

Дата мировой премьеры: 14 июня 2016
Продолжительность: ~00: 50: 00 серия
Качество видео: WEB-DLRip
Перевод: Многоголосый закадровый, профессиональный -LostFilm
Автор перевода: Алексей Матвеев
Видео: XviD, 720x400 (16: 9), ~1683 kb/s
Аудио Rus: MPEG Layer 3, 48, 0 kHz, 2 ch, 192 kb/s — многоголосый закадровый Код:
Общее
Полное имя : D:По волчьим законам (сезон любимого сериала 1) Animal Kingdom (2016) WEBDLRip - LostFilmAnimal.Kingdom.US.S01E01.rus.LostFilm.TV.avi
Формат : AVI
Формат/Информация : Audio Video Interleave
Размер файла : 741 Мбайт
Продолжительность : 55 м.
Режим общего битрейта : Переменный
Общий поток : 1882 Кбит/сек
Программа кодирования : Nandub v1.0rc2
Библиотека кодирования : Nandub build 1853/release
Видео
Идентификатор : 0
Формат : MPEG-4 Visual
Профиль формата : Advanced [email protected]
Параметр BVOP формата : Нет
Параметр QPel формата : Нет
Параметр GMC формата : Без точки перехода
Параметр матрицы формата : Default (H.263)
Идентификатор кодека : XVID
Идентификатор кодека/Подсказка : XviD
Продолжительность : 55 м.
Битрейт : 1683 Кбит/сек
Ширина : 720 пикселей
Высота : 400 пикселей
Соотношение сторон : 16:9
Частота кадров : 23, 976 (23976/1000) кадра/сек
Цветовое пространство : YUV
Субдискретизация насыщенности : 4:2:0
Битовая глубина : 8 бит
Тип развёртки : Прогрессивная
Метод сжатия : С потерями
Бит/(Пиксели*Кадры) : 0.244
Размер потока : 663 Мбайт (89%)
Библиотека кодирования : XviD 1.2.1 (UTC 2008-12-04)
Аудио
Идентификатор : 1
Формат : MPEG Audio
Версия формата : Version 1
Профиль формата : Layer 3
Режим : Joint stereo
Расширение режима : MS Stereo
Идентификатор кодека : 55
Идентификатор кодека/Подсказка : MP3
Продолжительность : 55 м.
Вид битрейта : Переменный
Битрейт : 192 Кбит/сек
Каналы : 2 канала
Частота : 48, 0 КГц
Метод сжатия : С потерями
Размер потока : 73, 4 Мбайт (10%)
Выравнивание : Соединение по промежуткам
Продолжительность промежутка : 24 мс. Богатый выбор, сказал кто то из толпы, к чему не понятно. (0, 58 видеокадр)
Время предзагрузки промежутка : 490 мс.
Библиотека кодирования : LAME3.97b
Настройки программы : -m j -V 4 -q 3 -lowpass 18.6 --abr 192


Скриншоты для ознакомления




Онлайн видео По волчьим законам

Другие торренты по теме:

  • По волчьим законам / Animal Kingdom (2009) BDRip [720p] скачать через торрент бесплатно
  • По волчьим законам / Animal Kingdom (2009) BDRip [H.264 / 1080p]
  • По волчьим законам / Animal Kingdom (2016) WEB-DLRip (сезон 1, серии 1 из 10) NewStudio (обновляемая)
  • По волчьим законам / Animal Kingdom (2016) WEB-DLRip [H.264] (сезон 1, серии 1 из 10) NewStudio (обновляемая)
  • По волчьим законам / Animal Kingdom (2016) WEB-DL [H.264 / 1080p-LQ] (сезон 1, серии 1 из 10) NewStudio (обновляемая)
  • По волчьим законам / Animal Kingdom (2016) WEB-DLRip [H.264 / 720p] (сезон 1, серии 1 из 10) LostFilm (обновляемая)
  • По волчьим законам / Animal Kingdom (2016) WEB-DLRip [H.264 / 1080p-LQ] (сезон 1, серии 1 из 10) LostFilm (обновляемая)
  • По волчьим законам / Animal Kingdom (2009) BDRemux [H.264 / 1080p]

  • Посетители, находящиеся в группе Гости, не могут оставлять комментарии в данной новости.