Подписывайся на наш канал в Telegram https://t.me/torrentok и получи доступ к торрентам без ограничений!

Агент Картер / Agent Carter (2016) WEB-DL [H.264 / 1080p-LQ] (сезон 2, серии 1-10 из 10) LostFilm торрент скачать бесплатно

Агент Картер / Agent Carter (2016) WEB-DL [H.264 / 1080p-LQ] (сезон 2, серии 1-10 из 10) LostFilmПроизводство: США
Жанр: фантастика, боевик, приключения
Режиссер: Лоуренс Триллинг, Дэвид Платт

Актеры
Хейли Этвелл, Ши Уигхэм, Линдси Фонсека, Кайл Борнхаймер, Меган Фэй, Бриджет Риган, Александр Кэрролл, Джеймс Хеберт, Лесли Бун, Джеймс Д’Арси и др.

Описание

Агент Картер — фантастический боевик по мотивам комиксов Marvel, сюжет которого связан с событиями блокбастера Первый мститель и сериала Агенты Щ.И.Т. (Marvel\'s Agents of S.H.I.E.L.D.). В создании шоу приняли участие сценаристы Первого мстителя и один из режиссёров его сиквела. Также над сериалом поработал постановщик и автор сценария Короткометражки Marvel: Агент Картер. Она вышла в 2013 году, и с тех пор преданные фанаты вселенной Marvel ждали, когда кто-нибудь займётся отдельным проектом об этой героине. Стоит заметить, что благодаря тщательному кастингу, основательно проработанной истории и неповторимой атмосфере послевоенной Америки сериал Агент Картер придётся по вкусу не только знатокам комиксов, но и любому ценителю захватывающих шпионских историй.

Продолжительность: ~00: 42: 00 серия
Качество видео: WEB-DL
Перевод: Многоголосый закадровый, профессиональный – LostFilm
Реклама: присутствует заставка и логотип LostFilm
Видео: AVC/H.264, 1920x1080 (16: 9), ~5242 Kbps
Аудио 1 Rus: AC3, 2 ch, 384 Kbps | многоголосый закадровый
Аудио 2 Eng: AC3, 2 ch, 384 Kbps | оригинал Код: Общее
Полное имя : F:FILMSMARVEL COMICSAgent CarterSeason 2 (2016)S02E01.mkv
Формат : Matroska
Версия формата : Version 4/Version 2
Размер файла : 1, 78 Гбайт
Продолжительность : 42 м.
Общий поток : 6010 Кбит/сек
Дата кодирования : UTC 2016-03-20 15:13:20
Программа кодирования : mkvmerge v8.8.0 (\'Wind at my back\') 64bit
Библиотека кодирования : libebml v1.3.3 + libmatroska v1.4.4
Видео
Идентификатор : 1
Формат : AVC
Формат/Информация : Advanced Video Codec
Профиль формата : [email protected]
Параметр CABAC формата : Да
Параметр ReFrames формата : 2 кадра
Идентификатор кодека : V_MPEG4/ISO/AVC
Продолжительность : 42 м.
Битрейт : 5242 Кбит/сек
Ширина : 1920 пикселей
Высота : 1080 пикселей
Соотношение сторон : 16:9
Режим частоты кадров : Постоянный
Частота кадров : 23, 976 (24000/1001) кадра/сек
Частота кадров в оригинале : 23, 976 (23976/1000) кадра/сек
Цветовое пространство : YUV
Субдискретизация насыщенности : 4:2:0
Битовая глубина : 8 бит
Тип развёртки : Прогрессивная
Бит/(Пиксели*Кадры) : 0.105
Размер потока : 1, 55 Гбайт (87%)
Библиотека кодирования : x264 core 112 r1834 a51816a
Настройки программы : cabac=1/ref=1/deblock=1:0:0/analyse=0x3:0x133/me=umh/subme=7/psy=1/psy_rd=1.00:0.00/mixed_ref=0/me_range=16/chroma_me=1/trellis=1/8x8dct=1/cqm=0/deadzone=21, 11/fast_pskip=1/chroma_qp_offset=-2/threads=12/sliced_threads=0/nr=0/decimate=1/interlaced=0/constrained_intra=0/bframes=5/b_pyramid=0/b_adapt=1/b_bias=0/direct=3/weightb=1/open_gop=0/weightp=2/keyint=250/keyint_min=25/scenecut=40/intra_refresh=0/rc_lookahead=40/rc=2pass/mbtree=1/bitrate=5242/ratetol=1.0/qcomp=0.60/qpmin=0/qpmax=51/qpstep=4/cplxblur=20.0/qblur=0.5/ip_ratio=1.40/aq=1:1.00
Default : Да
Forced : Нет
Аудио #1
Идентификатор : 2
Формат : AC-3
Формат/Информация : Audio Coding 3
Расширение режима : CM (complete main)
Параметр Endianness формата : Big
Идентификатор кодека : A_AC3
Продолжительность : 42 м.
Вид битрейта : Постоянный
Битрейт : 384 Кбит/сек
Каналы : 2 канала
Расположение каналов : Front: L R
Частота : 48, 0 КГц
Частота кадров : 31, 250 кадров/сек (1536 spf)
Метод сжатия : С потерями
Размер потока : 117 Мбайт (6%)
Default : Да
Forced : Нет
Аудио #2
Идентификатор : 3
Формат : AC-3
Формат/Информация : Audio Coding 3
Расширение режима : CM (complete main)
Параметр Endianness формата : Big
Идентификатор кодека : A_AC3
Продолжительность : 42 м.
Вид битрейта : Постоянный
Битрейт : 384 Кбит/сек
Каналы : 2 канала
Расположение каналов : Front: L R
Частота : 48, 0 КГц
Частота кадров : 31, 250 кадров/сек (1536 spf)
Метод сжатия : С потерями
Размер потока : 117 Мбайт (6%)
Default : Нет
Forced : Нет

Скриншоты для ознакомления




Онлайн видео Агент Картер

Другие торренты по теме:

  • Агент Картер / Agent Carter (2015) WEB-DL [H.264 / 720p-LQ] (Сезон 1, серии 1-8 из 8) (Невафильм) скачать через торрент бесплатно
  • Агент Картер / Agent Carter (2016) WEB-DLRip (сезон 2, серии 1 из 10) LostFilm (обновляемая)
  • Агент Картер / Agent Carter (2016) WEB-DLRip [H.264] (сезон 2, серии 1 из 10) LostFilm [MP4|1280x720]
  • Агент Картер / Agent Carter (2016) WEB-DL [H.264 / 720p-LQ] (сезон 2, серия 1 из 10) (LostFilm) (обновляемая)
  • Агент Картер / Agent Carter (2016) HDTV [H.264 / 720p-LQ] (сезон 2, серии 1-2 из 10) [EN / RU Sub] (обновляемая)
  • Агент Картер / Agent Carter (2016) WEB-DL [H.264 / 720p-LQ] (сезон 2, серии 1-10 из 10) LostFilm, NevaFilm
  • Агент Картер / Agent Carter (2015) WEB-DL [H.264 / 720p-LQ] (сезон 1, серии 1-8 из 8) LostFilm, NevaFilm

  • Посетители, находящиеся в группе Гости, не могут оставлять комментарии в данной новости.