Подписывайся на наш канал в Telegram https://t.me/torrentok и получи доступ к торрентам без ограничений!

Обвиняемая / Guilt (2016) WEB-DL [H.264 / 1080p-LQ] (сезон 1, серии 1-1 из 10) NewStudio (обновляемая) торрент скачать бесплатно

Обвиняемая / Guilt (2016) WEB-DL [H.264 / 1080p-LQ] (сезон 1, серии 1-1 из 10) NewStudio (обновляемая)Производство: США
Жанр: Драма
Режиссер: Элизабет Аллен, Гэри Фледер

Актеры
Кристиан Солимено, Мэтт Таунсенд, Кевин Дж. Райан, Дэниэл Бен Зеноу, Катя Бокор, Дильяна Буклиева, Миклош Баньяи, Сэм Кэссиди и др.

Описание

Ключевая фигура в изысканном, сексуальном и тревожном сериале Guilt - совсем юная американская студентка, учащаяся в Лондоне. Её соседка по комнате была зверски убита и главная героиня становится основной подозреваемой. По мере развёртывания расследования зритель начинает всё больше сомневаться, кто же перед ним. Наивная молодая девушка, которой не повезло попасть в прицел внимания британских таблоидов? Или социопатка, безжалостно убившая свою подругу? Даже сестра, прилетевшая защищать героиню в Лондон, узнавая всё новые слои отвратительной правды о ней, понимает, как же мало она знала родную кровь. В этой захватывающей истории представлена вся оборотная сторона современного английского общества – от шикарных секс-клубов, в которых царит разврат, до самой королевской семьи.

Дата мировой премьеры: 13 июня 2016
Продолжительность: ~00: 45: 00 серия
Качество видео: WEB-DL
Перевод: Многоголосый закадровый, профессиональный - NewStudio
Реклама: присутствуют аудио, видео вставки рекламы.
Видео: AVC/H.264, 1920х1080, ~4 997 Kbps, 23.976 fps
Аудио #1: AC3, 6 ch, 384 Кбит/сек - Многоголосый закадровый
Аудио #2: AC3, 6 ch, 384 Кбит/сек - Оригинал Код:
Complete name : G:Guilt.WEBDL.1080p.NewStudioGuilt.s01e01.WEBDL.1080p.NewStudio.mkv
Format : Matroska
Format version : Version 4/Version 2
File size : 1.77 GiB
Duration : 43mn 49s
Overall bit rate : 5 767 Kbps
Encoded date : UTC 2016-06-18 19:34:46
Writing application : mkvmerge v8.2.0 (\'World of Adventure\') 32bit
Writing library : libebml v1.3.1 + libmatroska v1.4.2
Video
ID : 1
Format : AVC
Format/Info : Advanced Video Codec
Format profile : [email protected]
Format settings, CABAC : Yes
Format settings, ReFrames : 4 frames
Codec ID : V_MPEG4/ISO/AVC
Duration : 43mn 49s
Bit rate : 4 997 Kbps
Width : 1 920 pixels
Height : 1 080 pixels
Display aspect ratio : 16:9
Frame rate mode : Constant
Frame rate : 23.976 (24000/1001) fps
Color space : YUV
Chroma subsampling : 4:2:0
Bit depth : 8 bits
Scan type : Progressive
Bits/(Pixel*Frame) : 0.101
Stream size : 1.53 GiB (87%)
Language : English
Default : Yes
Forced : No
Color range : Limited
Color primaries : BT.709
Transfer characteristics : BT.709
Matrix coefficients : BT.709
Audio #1
ID : 2
Format : AC-3
Format/Info : Audio Coding 3
Mode extension : CM (complete main)
Format settings, Endianness : Big
Codec ID : A_AC3
Duration : 43mn 49s
Bit rate mode : Constant
Bit rate : 384 Kbps
Channel(s) : 6 channels
Channel positions : Front: L C R, Side: L R, LFE
Sampling rate : 48.0 KHz
Frame rate : 31.250 fps (1536 spf)
Compression mode : Lossy
Stream size : 120 MiB (7%)
Title : NewStudio.TV
Language : Russian
Default : Yes
Forced : No
Audio #2
ID : 3
Format : AC-3
Format/Info : Audio Coding 3
Mode extension : CM (complete main)
Format settings, Endianness : Big
Codec ID : A_AC3
Duration : 43mn 49s
Bit rate mode : Constant
Bit rate : 384 Kbps
Channel(s) : 6 channels
Channel positions : Front: L C R, Side: L R, LFE
Sampling rate : 48.0 KHz
Frame rate : 31.250 fps (1536 spf)
Compression mode : Lossy
Stream size : 120 MiB (7%)
Language : English
Default : No
Forced : No
Text
ID : 4
Format : ASS
Codec ID : S_TEXT/ASS
Codec ID/Info : Advanced Sub Station Alpha
Duration : 3s 510ms
Bit rate : 328 bps
Count of elements : 1
Compression mode : Lossless
Stream size : 144 Bytes (0%)
Title : Forced
Language : Russian
Default : Yes
Forced : No


Скриншоты для ознакомления




Онлайн видео Обвиняемая

Другие торренты по теме:

  • Обвиняемая / Guilt (2016) HDTV [H.264 / 720p-LQ] (сезон 1, серии 1 из 10) ColdFilm ( обновляемая )
  • Обвиняемая / Guilt (2016) WEB-DLRip [H.264 / 720p-LQ] (сезон 1, серии 1 из 10) BaibaKo ( обновляемая )
  • Обвиняемая / Guilt (2016) WEB-DLRip [H.264 / 720p-LQ] (сезон 1, серии 1-3 из 10) BaibaKo (обновляемая)
  • Обвиняемая / Вина / Guilt (2016) WEB-DLRip [H.264 / 1080p-LQ] (сезон 1, серии 1-4 из 10) BaibaKo (обновляемая)
  • Обвиняемая / Вина / Guilt (2016) HDTVRip (сезон 1, серии 1-4 из 10) IdeaFilm ( обновляемая )

  • Посетители, находящиеся в группе Гости, не могут оставлять комментарии в данной новости.