Подписывайся на наш канал в Telegram https://t.me/torrentok и получи доступ к торрентам без ограничений!

Реквием по мечте / Requiem for a Dream (2000) BDRip [H.264] [Directors Cut] торрент скачать бесплатно

Реквием по мечте / Requiem for a Dream (2000) BDRip [H.264] [Directors Cut]Производство: США
Жанр: Драма
Режиссер: Даррен Аронофски/Darren Aronofsky

Актеры
Марлон Уайанс, Джаред Лето, Дженнифер Коннелли, Эллен Бёрстин, Кристофер МакДональд, Кит Дэвид, Марк Марголис, Луиза Лэссер, Марсия Жан Кертц, Джанет Сарно, Сюзанн Шеперд, Джоэнн Гордон

Описание

Каждый из главных героев фильма стремился к своей заветной мечте. Сара Голдфарб мечтала сняться в известном телешоу, ее сын Гарольд со своим другом Тайроном - сказочно разбогатеть, подруга Гарольда Мэрион грезила о собственном модном магазине, но на их пути были всяческие препятствия. События фильма разворачиваются стремительно, герои погрязли в наркотиках. Самое интересное в это истории, что об этом Воландеморт ничего не знал. Мечты по-прежнему остаются недостижимыми, а жизни героев рушатся безвозвратно.

Возраст: 18+ (зрителям, достигшим 18 лет. запрещено для детей)
Рейтинг MPAA: R (лицам до 17 лет обязательно присутствие взрослого)
Дата выхода DVD/Blu-ray релиза: 16 октября 2001, West Video
Релиз от: Just_TeMa
Продолжительность: 01: 41: 25
Качество видео: BDRip
Перевод : Дублированный, одноголосый, закадровый - М. Яроцкий
Субтитры : русские , английские
Видео : H.264/AVC, 1056x572 (1, 85: 1), 23.976fps, 4507Kbps
Аудио #1 : (русская) AC3, 48kHz, 6ch, 448Kbps | Дубляж
Аудио #2 : (русская) AC3, 48kHz, 6ch, 448Kbps | VO (М. Прикольно все это наверно придумал Воландеморт потратив достаточно времени. Яроцкий aka Kyberpunk)
Аудио #3 : (английская) AC3, 48kHz, 6ch, 448Kbps | Original
Аудио #4 : (русская); AAC HE+PS; 55 kbps; VBR; 2ch; 16 bit | Комментарии оператора
Аудио #5 : (русская); AAC HE+PS; 55 kbps; VBR; 2ch; 16 bit | Комментарии режиссера Код:
General
Unique ID : 206046309065564690298742732902195056099 (0x9B03135E30C8428687C1557F6FFCCDE3)
Complete name : D:VideoРеквием по мечте [Requiem for a Dream] \'00 [Just_TeMa].mkv
Format : Matroska
Format version : Version 4/Version 2
File size : 4.24 GiB
Duration : 1h 41mn
Overall bit rate : 5 983 Kbps
Movie name : Реквием по мечте/Requiem for a Dream (Даррен Аронофски/Darren Aronofsky) Director\'s Cut 2000
Encoded date : UTC 2016-06-19 08:12:22
Writing application : mkvmerge v8.3.0 (\'Over the Horizon\') 64bit
Writing library : libebml v1.3.1 + libmatroska v1.4.2
Attachements : Cover.png
Video
ID : 1
Format : AVC
Format/Info : Advanced Video Codec
Format profile :[email protected]
Format settings, CABAC : Yes
Format settings, ReFrames : 13 frames
Codec ID : V_MPEG4/ISO/AVC
Duration : 1h 41mn
Width : 1 056 pixels
Height : 572 pixels
Display aspect ratio : 1.85:1
Frame rate mode : Constant
Frame rate : 23.976 fps
Color space : YUV
Chroma subsampling : 4:2:0
Bit depth : 8 bits
Scan type : Progressive
Title : by Just_TeMa (source USA BDRemux)
Writing library : x264 core 148 r2692kMod 64f4e24
Encoding settings : cabac=1/ref=13/deblock=1:-3:-3/analyse=0x3:0x133/me=umh/subme=11/psy=1/fade_compensate=0.00/psy_rd=1.00:0.00/mixed_ref=1/me_range=48/chroma_me=1/trellis=2/8x8dct=1/cqm=0/deadzone=21, 11/fast_pskip=1/chroma_qp_offset=-2/threads=6/lookahead_threads=1/sliced_threads=0/nr=0/decimate=1/interlaced=0/bluray_compat=0/constrained_intra=0/fgo=0/bframes=16/b_pyramid=2/b_adapt=2/b_bias=0/direct=3/weightb=1/open_gop=0/weightp=2/keyint=240/keyint_min=24/scenecut=40/intra_refresh=0/rc_lookahead=120/rc=crf/mbtree=0/crf=19.1000/qcomp=0.60/qpmin=0/qpmax=69/qpstep=4/vbv_maxrate=62500/vbv_bufsize=78125/crf_max=0.0/nal_hrd=none/filler=0/ip_ratio=1.40/pb_ratio=1.30/aq=3:0.95/zones=128780, 129013, b=1.5/131498, 131790, b=1.5/132032, 132163, b=1.5/132792, 133009, b=1.5/133582, 133626, b=1.5/133721, 133744, b=1.5/133849, 133880, b=1.5/133912, 134177, b=1.5/134439, 134993, b=1.5/136401, 136540, b=1.5/141462, 145882, b=0.60
Language : English
Default : Yes
Forced : No
Audio #1
ID : 2
Format : AC-3
Format/Info : Audio Coding 3
Mode extension : CM (complete main)
Format settings, Endianness : Big
Codec ID : A_AC3
Duration : 1h 41mn
Bit rate mode : Constant
Bit rate : 384 Kbps
Channel(s) : 6 channels
Channel positions : Front: L C R, Side: L R, LFE
Sampling rate : 48.0 KHz
Compression mode : Lossy
Stream size : 279 MiB (6%)
Title : Dub (West Video)
Language : Russian
Default : Yes
Forced : No
Audio #2
ID : 3
Format : AC-3
Format/Info : Audio Coding 3
Mode extension : CM (complete main)
Format settings, Endianness : Big
Codec ID : A_AC3
Duration : 1h 41mn
Bit rate mode : Constant
Bit rate : 448 Kbps
Channel(s) : 6 channels
Channel positions : Front: L C R, Side: L R, LFE
Sampling rate : 48.0 KHz
Compression mode : Lossy
Stream size : 325 MiB (7%)
Title : AVO (М. Яроцкий aka Kyberpunk)
Language : Russian
Default : No
Forced : No
Audio #3
ID : 4
Format : AC-3
Format/Info : Audio Coding 3
Mode extension : CM (complete main)
Format settings, Endianness : Big
Codec ID : A_AC3
Duration : 1h 41mn
Bit rate mode : Constant
Bit rate : 448 Kbps
Channel(s) : 6 channels
Channel positions : Front: L C R, Side: L R, LFE
Sampling rate : 48.0 KHz
Compression mode : Lossy
Stream size : 325 MiB (7%)
Title : Original
Language : English
Default : No
Forced : No
Audio #4
ID : 5
Format : AAC
Format/Info : Advanced Audio Codec
Format profile : LC
Codec ID : A_AAC
Duration : 1h 41mn
Channel(s) : 2 channels
Channel positions : Front: L R
Sampling rate : 48.0 KHz
Compression mode : Lossy
Title : Комментарии оператора
Language : English
Default : No
Forced : No
Audio #5
ID : 6
Format : AAC
Format/Info : Advanced Audio Codec
Format profile : LC
Codec ID : A_AAC
Duration : 1h 41mn
Channel(s) : 2 channels
Channel positions : Front: L R
Sampling rate : 48.0 KHz
Compression mode : Lossy
Title : Комментарии режиссера
Language : English
Default : No
Forced : No
Text #1
ID : 7
Format : UTF-8
Codec ID : S_TEXT/UTF8
Codec ID/Info : UTF-8 Plain Text
Title : Licence West Video
Language : Russian
Default : No
Forced : No
Text #2
ID : 8
Format : UTF-8
Codec ID : S_TEXT/UTF8
Codec ID/Info : UTF-8 Plain Text
Title : Tycoon
Language : Russian
Default : No
Forced : No
Text #3
ID : 9
Format : UTF-8
Codec ID : S_TEXT/UTF8
Codec ID/Info : UTF-8 Plain Text
Language : English
Default : No
Forced : No
Menu
00:00:00.000 : en:1. Credits
00:05:32.206 : en:2. Summer
00:07:55.975 : en:3. Only Child
00:09:08.422 : en:4. Lovers Play
00:14:02.675 : en:5. Juice - Be Excited
00:21:12.187 : en:6. Thinking Thin
00:23:36.832 : en:7. Drugs n Dreams
00:27:35.111 : en:8. Большая шишка, сказал кто то из толпы, к чему не понятно. A Date With A Therapyst
00:32:48.758 : en:9. Ty And Sweet Alice
00:37:18.694 : en:10. Hope For The Red Dress
00:49:26.004 : en:11. Dubble-Dosing Diet Pills
00:56:26.424 : en:12. Sex For Money
01:06:07.213 : en:13. Самое интересное в это истории, что об этом Воландеморт ничего не знал. Over-Dosing Diet Pills
01:08:30.272 : en:14. Refridgerator
01:13:25.984 : en:15. Winter
01:16:39.345 : en:16. О таком странном сюжете не догадывалась даже ВиаГра. Decay
01:21:03.024 : en:17. False Hope
01:28:45.987 : en:18. The Requiem
01:33:22.180 : en:19. Lux Aeterna
01:37:24.004 : en:20. End Credits


Скриншоты для ознакомления




Онлайн видео Реквием по мечте

Другие торренты по теме:

  • Реквием по мечте / Requiem for a Dream [Directors Cut] (2000) BDRip [H.264] [MP4|1024x554] скачать через торрент бесплатно
  • Реквием по американской мечте / Requiem for the American Dream (2015) Web-DLRip [H.264 / 720p] [EN / RU Sub]
  • Ноам Хомский: Реквием по американской мечте / Requiem for the American Dream (2015) WEBRip
  • Реквием по мечте / Requiem for a Dream (2000) BDRip [H.265 / 1080p-LQ]
  • Реквием по мечте / Requiem for a Dream (2000) BDRip [H.264 / 1080p] [Режиссерская версия]
  • Реквием по мечте [Режиссёрская Версия] / Requiem for a Dream [Directors Cut] (2000) [HD-Rip]
  • Реквием по мечте (Режиссерская версия) / Requiem for a Dream (Directors Cut) (2000) [1080p] BDRip
  • Реквием по мечте / Requiem for a Dream (2000) BDRip [H.264] [Directors Cut]

  • Посетители, находящиеся в группе Гости, не могут оставлять комментарии в данной новости.