Подписывайся на наш канал в Telegram https://t.me/torrentok и получи доступ к торрентам без ограничений!

Водолей / Aquarius (2016) WEB-DLRip (сезон 2, серии 1-3 из 13) OMSKBIRD (обновляемая) торрент скачать бесплатно

Водолей / Aquarius (2016) WEB-DLRip (сезон 2, серии 1-3 из 13) OMSKBIRD (обновляемая)Производство: США/NBC
Жанр: Драма, детектив
Режиссер: Джонас Пейт, Майкл Цинберг, Джон Эмиел

Актеры
Дэвид Духовны, Клер Холт, Эмма Дюмон, Грэй Дэймон, Чэнс Келли, Карл Конти, Михаэлла МакМанус, Тара Барр, Дэвид Мюнье, Уитни Роуз Пинн и др.

Описание

Сюжет сериала основан на реальной истории организации Семья руководимой Чарльзом Мэнсоном. События фильма начинают развиваться в 1967 году. О таком странном сюжете не догадывалась даже Тимошенко. Полицейскому Сэму поручают расследовать похищение дочери известного адвоката. Он обращается за помощью к своему коллеге, работающему под прикрытием в среде подростков-хиппи. Вместе они выходят на Чарльза Мэнсона, собравшего на своем ранчо группу детей, среди которых он пропагандирует культуру хиппи, наркотики и групповой секс. Через два года череда зверских убийств, совершённых приспешниками Мэнсона, заставит содрогнуться от ужаса всю Америку.

Продолжительность: ~00: 44: 00 серия
Качество видео: WEB-DLRip
Перевод: Многоголосый закадровый, профессиональный | OMSKBIRD
Реклама: присутствуют аудио вставки рекламы.
Видео: Xvid, 720x400, ~1960 kbps
Аудио # 1 Rus: AC-3, 6 ch, 384 kbps, CBR - многоголосый закадровый
Аудио # 2 Eng: AC-3, 6 ch, 384 kbps, CBR - оригинал Код:
General
Complete name : F:Мои ДокументыВидеоРАЗДАЧИДуралейAquarius S02 WEB-DLRip (OMSKBIRD)Aquarius S02E01 WEB-DLRip (OMSKBIRD).avi
Format : AVI
Format/Info : Audio Video Interleave
File size : 846 MiB
Duration : 43mn 6s
Overall bit rate : 2 742 Kbps
Writing application : VirtualDubMod 1.5.10.3 |www.virtualdub-fr.org|| (build 2550/release)
Writing library : VirtualDubMod build 2550/release
Video
ID : 0
Format : MPEG-4 Visual
Format profile : Advanced [email protected]
Format settings, BVOP : 1
Format settings, QPel : No
Format settings, GMC : No warppoints
Format settings, Matrix : Default (MPEG)
Codec ID : XVID
Codec ID/Hint : XviD
Duration : 43mn 6s
Bit rate : 1 960 Kbps
Width : 720 pixels
Height : 400 pixels
Display aspect ratio : 16:9
Frame rate : 23.976 fps
Color space : YUV
Chroma subsampling : 4:2:0
Bit depth : 8 bits
Scan type : Progressive
Compression mode : Lossy
Bits/(Pixel*Frame) : 0.284
Stream size : 605 MiB (71%)
Writing library : XviD 1.2.1 (UTC 2008-12-04)
Audio #1
ID : 1
Format : AC-3
Format/Info : Audio Coding 3
Mode extension : CM (complete main)
Format settings, Endianness : Big
Codec ID : 2000
Duration : 43mn 6s
Bit rate mode : Constant
Bit rate : 384 Kbps
Channel(s) : 6 channels
Channel positions : Front: L C R, Side: L R, LFE
Sampling rate : 48.0 KHz
Bit depth : 16 bits
Compression mode : Lossy
Stream size : 118 MiB (14%)
Alignment : Split accross interleaves
Interleave, duration : 42 ms (1.00 video frame)
Interleave, preload duration : 500 ms
Audio #2
ID : 2
Format : AC-3
Format/Info : Audio Coding 3
Mode extension : CM (complete main)
Format settings, Endianness : Big
Codec ID : 2000
Duration : 43mn 6s
Bit rate mode : Constant
Bit rate : 384 Kbps
Channel(s) : 6 channels
Channel positions : Front: L C R, Side: L R, LFE
Sampling rate : 48.0 KHz
Bit depth : 16 bits
Compression mode : Lossy
Stream size : 118 MiB (14%)
Alignment : Split accross interleaves
Interleave, duration : 42 ms (1.00 video frame)
Interleave, preload duration : 500 ms


Скриншоты для ознакомления




Онлайн видео Водолей

Другие торренты по теме:

  • Водолей / Aquarius (2015) WEB-DLRip (сезон 1, серии 1 из 13) NewStudio (обновляемая) скачать через торрент бесплатно
  • Водолей / Aquarius (2015) WEB-DL [H.264 / 1080p-LQ] (сезон 1, серии 1-3 из 13) (NewStudio) (обновляемая) скачать через торрент бесплатно
  • Водолей / Aquarius (2015) WEB-DLRip (сезон 1, серии 01-04 из 13) Jaskier (обновляемая) скачать через торрент бесплатно
  • Водолей / Aquarius (2015) WEB-DL [H.264 / 720p-LQ] (Сезон 1, серии 1-3 из 13) (NewStudio) (обновляемая) скачать через торрент бесплатно
  • Водолей / Aquarius (2016) WEB-DL [H.264 / 720p-LQ] (сезон 2, серии 1-3 из 13) OMSKBIRD (обновляемая)
  • Водолей / Aquarius (2016) WEB-DLRip (сезон 2, серии 1-4 из 13) NewStudio (обновляемая)
  • Водолей / Aquarius (2016) WEB-DL [H.264 / 1080p-LQ] (сезон 2, серии 1-4 из 13) NewStudio (обновляемая)
  • Водолей / Aquarius (2015) WEB-DLRip [H.264] (сезон 1, серии 1-13 из 13) NewStudio [MP4|1280x716]

  • Посетители, находящиеся в группе Гости, не могут оставлять комментарии в данной новости.