Подписывайся на наш канал в Telegram https://t.me/torrentok и получи доступ к торрентам без ограничений!

Оранжевый - хит сезона / Оранжевый - новый чёрный / Orange Is the New Black (2016) WEBRip (сезон 4, серии 1-3 из 13) NeStudio (обновляемая) торрент скачать бесплатно

Оранжевый - хит сезона / Оранжевый - новый чёрный / Orange Is the New Black (2016) WEBRip (сезон 4, серии 1-3 из 13) NeStudio (обновляемая)Производство: США/Tilted Productions, Lionsgate Television
Жанр: драма, комедия, криминал
Режиссер: Эндрю МакКарти, Майкл Трим, Фил Абрахам

Актеры
Тейлор Шиллинг, Майкл Харни, Кейт Малгрю, Эбигейл Сэвадж, Даниэль Брукс, Джессика Пиментел, Узо Адуба, Даша Поланко, Самира Уайли, Ник Сэндоу и др.

Описание

Пайпер Чепмен — обычная жительница Коннектикута. Она любит свою благополучную жизнь и все её приятные мелочи. Богатый выбор, сказал кто то из толпы, к чему не понятно. Душ по утрам, красивый завтрак, занятия любовью. Но случается так, что благодаря своему мимолетному увлечению крупным наркоторговцем, Пайпер оказывается заключенной в тюрьму на долгие пятнадцать месяцев. Отныне ей необходимо не только привыкнуть к новому окружению, но и просто — выжить.

Продолжительность: ~00: 55: 00 серия
Качество видео: WEBRip
Перевод: Многоголосый закадровый, профессиональный -NewStudio
Автор перевода: Александра Цернант, Юлия Мейер, Булат Карабасов
Видео: XviD, 720x400 (16: 9), ~1528 Kb/s
Аудио Rus: MPEG Layer 3, 48, 0 kHz, 2 ch, 128 kb/s — многоголосый закадровый
Аудио Eng: MPEG Layer 3, 48, 0 kHz, 2 ch, 128 kb/s — оригинал Код:
Общее
Полное имя : D:Оранжевый - хит сезон любимого сериалаа (сезон любимого сериала 4) Orange Is the New Black (2016) WEBRip - NewStudioOrange.Is.the.New.Black.S04E01.WEBRip.Rus.Eng.DV.NewStudio.avi
Формат : AVI
Формат/Информация : Audio Video Interleave
Размер файла : 690 Мбайт
Продолжительность : 53 м.
Общий поток : 1798 Кбит/сек
Название фильма : Orange.Is.the.New.Black.S04E01.WEBRip.Rus.Eng.DV.NewStudio/NNM-Club
Программа кодирования : VirtualDubModRus 1.5.10.2 (build 2542/release)
Библиотека кодирования : VirtualDubMod build 2542/release
Видео
Идентификатор : 0
Формат : MPEG-4 Visual
Профиль формата : Advanced [email protected]
Параметр BVOP формата : 2
Параметр QPel формата : Нет
Параметр GMC формата : Без точки перехода
Параметр матрицы формата : Default (MPEG)
Идентификатор кодека : XVID
Идентификатор кодека/Подсказка : XviD
Продолжительность : 53 м.
Битрейт : 1528 Кбит/сек
Ширина : 720 пикселей
Высота : 400 пикселей
Соотношение сторон : 16:9
Частота кадров : 23, 976 (23976/1000) кадра/сек
Цветовое пространство : YUV
Субдискретизация насыщенности : 4:2:0
Битовая глубина : 8 бит
Тип развёртки : Прогрессивная
Метод сжатия : С потерями
Бит/(Пиксели*Кадры) : 0.221
Размер потока : 586 Мбайт (85%)
Библиотека кодирования : XviD 73
Аудио #1
Идентификатор : 1
Формат : MPEG Audio
Версия формата : Version 1
Профиль формата : Layer 3
Режим : Joint stereo
Расширение режима : MS Stereo
Идентификатор кодека : 55
Идентификатор кодека/Подсказка : MP3
Продолжительность : 53 м.
Вид битрейта : Постоянный
Битрейт : 128 Кбит/сек
Каналы : 2 канала
Частота : 48, 0 КГц
Метод сжатия : С потерями
Размер потока : 49, 1 Мбайт (7%)
Выравнивание : Соединение по промежуткам
Продолжительность промежутка : 42 мс. (1, 00 видеокадр)
Время предзагрузки промежутка : 504 мс.
Аудио #2
Идентификатор : 2
Формат : MPEG Audio
Версия формата : Version 1
Профиль формата : Layer 3
Режим : Joint stereo
Расширение режима : MS Stereo
Идентификатор кодека : 55
Идентификатор кодека/Подсказка : MP3
Продолжительность : 53 м.
Вид битрейта : Постоянный
Битрейт : 128 Кбит/сек
Каналы : 2 канала
Частота : 48, 0 КГц
Метод сжатия : С потерями
Размер потока : 49, 1 Мбайт (7%)
Выравнивание : Соединение по промежуткам
Продолжительность промежутка : 42 мс. (1, 00 видеокадр)
Время предзагрузки промежутка : 504 мс.
Библиотека кодирования : LAME3.99.5ЄЄЄЄЄЄЄЄЄЄ


Скриншоты для ознакомления




Онлайн видео Оранжевый - хит сезон любимого сериалаа

Другие торренты по теме:

  • Оранжевый - хит сезона / Оранжевый — новый черный / Orange Is the New Black (2014) WEBRip [720p] (Сезон 2 / Серии 1-13 из 13) NewStudio скачать через торрент бесплатно
  • Оранжевый - хит сезона / Оранжевый - новый чёрный / Orange Is the New Black (2015) WEBRip [H.264 / 720p-LQ] (сезон 3, серии 1-2 из 13) (NewStudio) (обновляемая) скачать через торрент бесплатно
  • Оранжевый - хит сезона / Оранжевый - новый чёрный / Orange Is the New Black (2015) WEBRip (сезон 3, серии 1-2 из 13) NewStudio (обновляемая) скачать через торрент бесплатно
  • Оранжевый - хит сезона / Оранжевый - новый чёрный / Orange Is the New Black (2018) WEB-DLRip (сезон 6, серии 1-13 из 13) IdeaFilm [AD]
  • Оранжевый - хит сезона / Оранжевый - новый чёрный / Orange Is the New Black (2018) WEBRip (сезон 6, серии 1-4 из 13) NewStudio (обновляемая)
  • Оранжевый - хит сезона / Оранжевый - новый чёрный / Orange Is the New Black (2018) WEBRip [H.264 / 1080p] (сезон 6, серии 1-13 из 13) TVShows
  • Оранжевый - хит сезона / Orange Is the New Black (2016) WEBRip [H.264 / 720p-LQ] (сезон 4, серии 1-13 из 13) ColdFilm
  • Пайпер Керман | Оранжевый – хит сезона. Как я провела год в женской тюрьме (2017) [FB2]

  • Посетители, находящиеся в группе Гости, не могут оставлять комментарии в данной новости.