Подписывайся на наш канал в Telegram https://t.me/torrentok и получи доступ к торрентам без ограничений!

В былые времена / Back in the Day (2016) WEB-DLRip торрент скачать бесплатно

В былые времена / Back in the Day (2016) WEB-DLRipПроизводство: США/Movie Group, The, Tappan Films
Жанр: Драма
Режиссер: Пол Боргезе

Актеры
Алек Болдуин, Шеннен Доэрти, Дэнни Гловер, Аннабелла Шиорра, Джо Д`Онофрио, Луис Ломбарди, Мэнни Перез, Марго Казарян, Уильям ДеМео, Джимми Палумбо, Пол Боргезе, Мэнни Айала, Ронни Мармо, Рокко Паренте ...

Описание

Детство у главного персонажа было не такое счастливое, как хотелось бы. Самое интересное в это истории, что об этом Бетмен ничего не знал. Вспоминая о прошлом, он раз за разом мысленно переноситься в Бруклин, где проходили детские годы, на улицах города процветала преступность, часто были слышны выстрелы и крики. Главный персонаж рос в жесточайшем мире, в котором его унижали, оскорбляли. Отец, который страдал от алкогольной зависимости практически не обращал внимание на растущего сына, а любимая мама, которая заботилась о сыне как могла, покинула этот мир слишком рано. Парень очень тяжело переживал смерть матери, но, не смотря на это, он старался оставаться хорошим человекам с моральными устоями. Спустя какое-то время на парня обратил внимание человек из преступного мира, он забрал его к себе в тот момент, когда парень решил связать свою жизнь с боксом. С каждым днем герой становился все сильнее и успешнее, хотя для мальчика который вырос в таких условиях это практически невозможно.

Премьера(мир): 20 мая 2016
Продолжительность: 02: 01: 14
Качество видео: WEB-DLRip
Перевод: Профессиональный многоголосый (Paradox Omskbird records)
Субтитры: Английские (отдельным файлом)
Видео: xvid, 720x304 (2.35: 1), 23.976 fps, 1 818 Kbps (0.346 bit/pixel)
Аудио: AC-3, 48.0 KHz, 2 ch, 192 Kbps, CBR - русский
Аудио: AC-3, 48.0 KHz, 6 ch, 384 Kbps, CBR - английский Код:
Формат : AVI
Формат/Информация : Audio Video Interleave
Профиль формата : OpenDML
Размер файла : 2, 04 Гбайт
Продолжительность : 2 ч. 1 м.
Общий поток : 2411 Кбит/сек
Программа кодирования : XviD4PSP 6.0/54.29.105
Видео
Идентификатор : 0
Формат : xvid
Идентификатор кодека : xvid
Продолжительность : 2 ч. 1 м.
Битрейт : 1818 Кбит/сек
Ширина : 720 пикселей
Высота : 304 пикселя
Соотношение сторон : 2, 40:1
Частота кадров : 23, 976 кадра/сек
Бит/(Пиксели*Кадры) : 0.346
Размер потока : 1, 54 Гбайт (75%)
Аудио #1
Идентификатор : 1
Формат : AC-3
Формат/Информация : Audio Coding 3
Расширение режима : CM (complete main)
Параметр Endianness формата : Big
Идентификатор кодека : 2000
Продолжительность : 2 ч. 1 м.
Вид битрейта : Постоянный
Битрейт : 192 Кбит/сек
Каналы : 2 канала
Расположение каналов : Front: L R
Частота : 48, 0 КГц
Битовая глубина : 16 бит
Метод сжатия : С потерями
Размер потока : 166 Мбайт (8%)
Выравнивание : Соединение по промежуткам
Продолжительность промежутка : 32 мс. (0, 77 видеокадр)
Аудио #2
Идентификатор : 2
Формат : AC-3
Формат/Информация : Audio Coding 3
Расширение режима : CM (complete main)
Параметр Endianness формата : Big
Идентификатор кодека : 2000
Продолжительность : 2 ч. 1 м.
Вид битрейта : Постоянный
Битрейт : 384 Кбит/сек
Каналы : 6 каналов
Расположение каналов : Front: L C R, Side: L R, LFE
Частота : 48, 0 КГц
Битовая глубина : 16 бит
Метод сжатия : С потерями
Размер потока : 333 Мбайт (16%)
Выравнивание : Соединение по промежуткам
Продолжительность промежутка : 32 мс. Вашими молитвами, сказал кто то из толпы, к чему не понятно. (0, 77 видеокадр)
Формат : SubRip
Размер файла : 145 Кбайт
Текст
Формат : SubRip
Метод сжатия : Без потерь


Скриншоты для ознакомления




Онлайн видео В былые времена

Другие торренты по теме:

  • В былые времена / Back in the Day (2016) WEB-DL [H.264 / 720p-LQ] [EN / EN Sub]
  • В былые времена / Back in the Day (2016) WEB-DLRip
  • В былые времена / Back in the Day (2016) WEB-DL [H.264 / 720p-LQ]
  • В былые времена / Back in the Day (2016) WEB-DL [H.264 / 720p-LQ]
  • В былые времена / Back in the Day (2016)

  • Посетители, находящиеся в группе Гости, не могут оставлять комментарии в данной новости.