Подписывайся на наш канал в Telegram https://t.me/torrentok и получи доступ к торрентам без ограничений!

Деревня ангелов / Angelby (2015) HDTVRip [H.264 / 720p-LQ] (сезон 1, серии 1-6 из 12) ProjectWebMoney (обновляемая) торрент скачать бесплатно

Деревня ангелов / Angelby (2015) HDTVRip [H.264 / 720p-LQ] (сезон 1, серии 1-6 из 12) ProjectWebMoney (обновляемая)Производство: Швеция
Жанр: Драма, Триллер, Детектив
Режиссер: Пер Ханефьорд

Актеры
Миа Шерингер, Йоран Рагнерстам, Юэль Спира, Аманда Оомс, Линда Молин

Описание

Вера переезжает в небольшую деревню, так как просто хочет начать новую жизнь. Недавно ей пришлось развестись с мужем, а также бросить работу. Ей теперь приходится одной надеяться на лучшую жизнь и воспитывать двух детей. Большая шишка, сказал кто то из толпы, к чему не понятно. Однако ее путь в так называемую Деревню Ангелов превращается в настоящий ад наяву.

Релиз от: ProjectWebMoney
Продолжительность: ~00: 45: 00 серия
Качество видео: HDTVRip
Перевод: Двуголосый закадровый, любительский - ProjectWebMoney
Вид субтитров: Вшитые отключаемые
Язык субтитров: Английский
Реклама: присутствуют аудио вставки рекламы.
Видео: AVC/H.264, 1280x720, ~1584 Кбит/сек
Аудио Ru: AC3, 2 ch, 192 Кбит/сек - Двуголосый закадровый
Аудио Swed: AAC, 2 ch, 96 Кбит/сек - оригинал Код:
Общее
Уникальный идентификатор : 190674031452022012729587028147394006814 (0x8F727B90DAA6D559A9C48B62B7D74F1E)
Полное имя : H:СериалыДеревня ангеловÄngelby.S01.720p.HDTVÄngelby.S01E01.720p.HDTV.mkv
Формат : Matroska
Версия формата : Version 4/Version 2
Размер файла : 590 Мбайт
Продолжительность : 44 м.
Общий поток : 1870 Кбит/сек
Дата кодирования : UTC 2016-05-08 14:50:43
Программа кодирования : mkvmerge v7.7.0 (\'Six Voices\') 32bit built on Feb 28 2015 23:23:00
Библиотека кодирования : libebml v1.3.1 + libmatroska v1.4.2
Видео
Идентификатор : 1
Формат : AVC
Формат/Информация : Advanced Video Codec
Профиль формата :[email protected]
Параметр CABAC формата : Да
Параметр ReFrames формата : 4 кадра
Идентификатор кодека : V_MPEG4/ISO/AVC
Продолжительность : 44 м.
Вид битрейта : Постоянный
Битрейт : 1584 Кбит/сек
Ширина : 1280 пикселей
Высота : 720 пикселей
Соотношение сторон : 16:9
Режим частоты кадров : Постоянный
Частота кадров : 25, 000 кадров/сек
Цветовое пространство : YUV
Субдискретизация насыщенности : 4:2:0
Битовая глубина : 8 бит
Тип развёртки : Прогрессивная
Бит/(Пиксели*Кадры) : 0.069
Размер потока : 499 Мбайт (85%)
Default : Да
Forced : Нет
Цветовой диапазон : Limited
Основные цвета : BT.709
Характеристики трансфера : BT.709
Коэффициенты матрицы : BT.709
Аудио #1
Идентификатор : 2
Формат : AC-3
Формат/Информация : Audio Coding 3
Расширение режима : CM (complete main)
Параметр Endianness формата : Big
Идентификатор кодека : A_AC3
Продолжительность : 44 м.
Вид битрейта : Постоянный
Битрейт : 192 Кбит/сек
Каналы : 2 канала
Расположение каналов : Front: L R
Частота : 48, 0 КГц
Частота кадров : 31, 250 кадров/сек (1536 spf)
Метод сжатия : С потерями
Задержка видео : -40 мс.
Размер потока : 60, 6 Мбайт (10%)
Язык : Russian
Default : Да
Forced : Нет
Аудио #2
Идентификатор : 3
Формат : AAC
Формат/Информация : Advanced Audio Codec
Профиль формата : HE-AAC/LC
Идентификатор кодека : A_AAC
Продолжительность : 44 м.
Битрейт : 96, 0 Кбит/сек
Каналы : 2 канала
Расположение каналов : Front: L R
Частота : 48, 0 КГц/24, 0 КГц
Частота кадров : 23, 438 кадра/сек (1024 spf)
Метод сжатия : С потерями
Задержка видео : -40 мс.
Размер потока : 29, 9 Мбайт (5%)
Язык : Swedish
Default : Нет
Forced : Нет
Текст
Идентификатор : 4
Формат : UTF-8
Идентификатор кодека : S_TEXT/UTF8
Идентификатор кодека/Информация : UTF-8 Plain Text
Продолжительность : 43 м.
Битрейт : 34 бит/сек
Count of elements : 278
Размер потока : 11, 0 Кбайт (0%)
Язык : English
Default : Да
Forced : Нет


Скриншоты для ознакомления




Онлайн видео Деревня ангелов

Другие торренты по теме:

  • Деревня ангелов / Angelby (2015) HDTVRip (сезон 1, серии 1-10 из 12) ProjectWebMania (обновляемая)

  • Посетители, находящиеся в группе Гости, не могут оставлять комментарии в данной новости.