Подписывайся на наш канал в Telegram https://t.me/torrentok и получи доступ к торрентам без ограничений!

Рэй Донован / Ray Donovan (2016) WEB-DL [H.264 / 720p-LQ] (сезон 4, серии 1 из 12) SunshineStudio (обновляемая) торрент скачать бесплатно

Рэй Донован / Ray Donovan (2016) WEB-DL [H.264 / 720p-LQ] (сезон 4, серии 1 из 12) SunshineStudio (обновляемая)Производство: США
Жанр: Драма, Криминал
Режиссер: Майкл Аппендаль, Дэниэл Эттиэс, Джон Дал

Актеры
Лив Шрайбер, Паула Малкомсон, Эдди Марсан, Дэш Майок, Джон Войт, Стивен Бауэр, Кэтрин Менниг, Пуч Холл, Кэррис Дорси, Девон Бэгби

Описание

Рэй Донован решает любые проблемы богатых и знаменитых людей Лос-Анджелеса, но при этом не может разобраться со своей собственной семьей...

Релиз от: SunshineStudio
Продолжительность: ~00: 58: 00 серия
Качество видео: WEB-DL
Перевод: Двуголосый закадровый, любительский - SunshineStudio
Реклама: присутствуют аудио, видео вставки рекламы.
Видео: AVC/H.264, 1280x720, ~2455 Кбит/сек
Аудио: AC3, 2 ch, 192 Кбит/сек Код:
Общее
Уникальный идентификатор : 197872161757966268188111919526782331594 (0x94DCCACA476250AC9EF353C5403A6ACA)
Полное имя : H:СериалыРэй Донован (2016) 4 сезон любимого сериалаRay.Donovan.S04.720p.SunshineStudioRay.Donovan.S04E01.720p.SunshineStudio.mkv
Формат : Matroska
Версия формата : Version 4/Version 2
Размер файла : 1, 11 Гбайт
Продолжительность : 58 м.
Общий поток : 2701 Кбит/сек
Дата кодирования : UTC 2016-06-20 17:30:50
Программа кодирования : mkvmerge v6.1.0 (\'Old Devil\') built on Mar 4 2013 09:10:42
Библиотека кодирования : libebml v1.3.0 + libmatroska v1.4.0
Видео
Идентификатор : 1
Формат : AVC
Формат/Информация : Advanced Video Codec
Профиль формата :[email protected]
Параметр CABAC формата : Да
Параметр ReFrames формата : 4 кадра
Идентификатор кодека : V_MPEG4/ISO/AVC
Продолжительность : 58 м.
Битрейт : 2455 Кбит/сек
Ширина : 1280 пикселей
Высота : 720 пикселей
Соотношение сторон : 16:9
Режим частоты кадров : Постоянный
Частота кадров : 23, 976 (23976/1000) кадра/сек
Цветовое пространство : YUV
Субдискретизация насыщенности : 4:2:0
Битовая глубина : 8 бит
Тип развёртки : Прогрессивная
Бит/(Пиксели*Кадры) : 0.111
Размер потока : 1, 01 Гбайт (91%)
Библиотека кодирования : x264 core 130 r2273 b3065e6
Настройки программы : cabac=1/ref=1/deblock=1:0:0/analyse=0x3:0x113/me=hex/subme=2/psy=1/psy_rd=1.00:0.10/mixed_ref=0/me_range=16/chroma_me=1/trellis=0/8x8dct=1/cqm=0/deadzone=21, 11/fast_pskip=1/chroma_qp_offset=0/threads=6/lookahead_threads=2/sliced_threads=0/nr=0/decimate=1/interlaced=0/bluray_compat=0/constrained_intra=0/bframes=3/b_pyramid=2/b_adapt=1/b_bias=0/direct=1/weightb=1/open_gop=0/weightp=1/keyint=250/keyint_min=23/scenecut=40/intra_refresh=0/rc_lookahead=10/rc=crf/mbtree=1/crf=17.0/qcomp=0.60/qpmin=0/qpmax=69/qpstep=4/ip_ratio=1.40/aq=1:1.00
Язык : English
Default : Да
Forced : Нет
Аудио
Идентификатор : 2
Формат : AC-3
Формат/Информация : Audio Coding 3
Расширение режима : CM (complete main)
Параметр Endianness формата : Big
Идентификатор кодека : A_AC3
Продолжительность : 58 м.
Вид битрейта : Постоянный
Битрейт : 192 Кбит/сек
Каналы : 2 канала
Расположение каналов : Front: L R
Частота : 48, 0 КГц
Частота кадров : 31, 250 кадров/сек (1536 spf)
Метод сжатия : С потерями
Размер потока : 80, 7 Мбайт (7%)
Default : Да
Forced : Нет


Скриншоты для ознакомления




Онлайн видео Рэй Донован

Другие торренты по теме:

  • Рэй Донован / Ray Donovan (2014) HDTVRip (Сезон 2, серии 01-11 из 12) NewStudio (Обновляемая)
  • Рэй Донован / Ray Donovan (2014) HDTVRip (Сезон 2, серии 1-11 из 12) NovaMedia (обновляемая)
  • Рэй Донован / Ray Donovan (2014) HDTV [H.264 / 1080i-LQ] (Сезон 2, серии 1-11 из 12) NovaMedia (обновляемая)
  • Рэй Донован / Ray Donovan (2014) HDTV [H.264 / 720p-LQ] (Сезон 2, Серия 1-11 из 12) NewStudio (обновляемая)
  • Рэй Донован / Ray Donovan (2015) WEB-DLRip (сезон 3, серии 1 из 12) NewStudio (обновляемая) скачать через торрент бесплатно
  • Рэй Донован / Ray Donovan (2015) HDTVRip [H.264] (сезон 3, серии 1 из 12) NewStudio (обновляемая) скачать через торрент бесплатно
  • Рэй Донован / Ray Donovan (2015) HDTVRip (сезон 3, серии 1 из 12) NewStudio (обновляемая) скачать через торрент бесплатно
  • Рэй Донован / Ray Donovan (2015) HDTVRip [H.264 / 720p-LQ] (сезон 3, серия 1 из 12) NewStudio (обновляемая) скачать через торрент бесплатно

  • Посетители, находящиеся в группе Гости, не могут оставлять комментарии в данной новости.