Подписывайся на наш канал в Telegram https://t.me/torrentok и получи доступ к торрентам без ограничений!

Американская готика / American Gothic (2016) HDTVRip (сезон 1, серии 1 из 13) OMSKBIRD (обновляемая) торрент скачать бесплатно

Американская готика / American Gothic (2016) HDTVRip (сезон 1, серии 1 из 13) OMSKBIRD (обновляемая)Производство: США/CBS, Amblin Television
Жанр: детектив, триллер
Режиссер: Джеймс Фрей

Актеры
Джастин Чэтвин, Меган Кетч, Энтони Старр, Джульет Райлэнс, Стефани Леонидас, Габриел Бейтмен и др.

Описание

Сюжет сериала разворачивается вокруг семейства Хоторнов — одного из самых богатых и влиятельных семейных кланов Бостона. После гибели главы семейства его члены узнают что к этой смерти был причастен серийный убийца. Это открытие порождает ожесточенную борьбу за влияние внутри клана, а родственники убитого начинают подозревать друг друга, опасаясь, что кто-то из них мог быть сообщником убийцы.

Продолжительность: ~00: 44: 00 серия
Качество видео: HDTVRip
Перевод: Многоголосый закадровый, профессиональный | OMSKBIRD
Реклама: присутствуют аудио вставки рекламы.
Видео: Xvid, 720x400, ~1485 kbps
Аудио # 1 Rus: AC-3, 6 ch, 384 kbps, CBR - многоголосый закадровый
Аудио # 2 Eng: AC-3, 6 ch, 384 kbps, CBR - оригинал Код:
General
Complete name : F:Мои ДокументыВидеоРАЗДАЧИГотикаAmerican Gothic S01 HDTVRip (OMSKBIRD)American Gothic S01E01 HDTVRip (OMSKBIRD).avi
Format : AVI
Format/Info : Audio Video Interleave
File size : 668 MiB
Duration : 41mn 10s
Overall bit rate : 2 267 Kbps
Writing application : VirtualDubMod 1.5.10.3 |www.virtualdub-fr.org|| (build 2550/release)
Writing library : VirtualDubMod build 2550/release
Video
ID : 0
Format : MPEG-4 Visual
Format profile : Advanced [email protected]
Format settings, BVOP : 1
Format settings, QPel : No
Format settings, GMC : No warppoints
Format settings, Matrix : Default (MPEG)
Codec ID : XVID
Codec ID/Hint : XviD
Duration : 41mn 10s
Bit rate : 1 485 Kbps
Width : 720 pixels
Height : 400 pixels
Display aspect ratio : 16:9
Frame rate : 23.976 fps
Color space : YUV
Chroma subsampling : 4:2:0
Bit depth : 8 bits
Scan type : Progressive
Compression mode : Lossy
Bits/(Pixel*Frame) : 0.215
Stream size : 437 MiB (66%)
Writing library : XviD 1.2.1 (UTC 2008-12-04)
Audio #1
ID : 1
Format : AC-3
Format/Info : Audio Coding 3
Mode extension : CM (complete main)
Format settings, Endianness : Big
Codec ID : 2000
Duration : 41mn 10s
Bit rate mode : Constant
Bit rate : 384 Kbps
Channel(s) : 6 channels
Channel positions : Front: L C R, Side: L R, LFE
Sampling rate : 48.0 KHz
Bit depth : 16 bits
Compression mode : Lossy
Stream size : 113 MiB (17%)
Alignment : Split accross interleaves
Interleave, duration : 42 ms (1.00 video frame)
Interleave, preload duration : 500 ms
Audio #2
ID : 2
Format : AC-3
Format/Info : Audio Coding 3
Mode extension : CM (complete main)
Format settings, Endianness : Big
Codec ID : 2000
Duration : 41mn 10s
Bit rate mode : Constant
Bit rate : 384 Kbps
Channel(s) : 6 channels
Channel positions : Front: L C R, Side: L R, LFE
Sampling rate : 48.0 KHz
Bit depth : 16 bits
Compression mode : Lossy
Stream size : 113 MiB (17%)
Alignment : Split accross interleaves
Interleave, duration : 42 ms (1.00 video frame)
Interleave, preload duration : 500 ms

Скриншоты для ознакомления




Онлайн видео Американская готика

Другие торренты по теме:

  • Американская готика / American Gothic (2016) HDTV [H.264 / 720p-LQ] (сезон 1, серии 1 из 13) OMSKBIRD (обновляемая)
  • Американская готика / American Gothic (2016) WEB-DL [H.264 / 1080p-LQ] (сезон 1, серии 1-1 из 13) NewStudio (обновляемая)
  • Американская готика / American Gothic (2016) WEB-DLRip [H.264 / 720p-LQ] (сезон 1, серии 1 из 8) NewStudio (обновляемая)
  • Американская готика / American Gothic (2016) WEB-DLRip [H.264 / 1080p-LQ] (сезон 1, серии 1-4 из 13) BaibaKo (обновляемая)
  • Американская готика / American Gothic (2016) WEB-DLRip [H.264] (сезон 1, серии 1-13 из 13) BaibaKo [MP4|1024x576]

  • Посетители, находящиеся в группе Гости, не могут оставлять комментарии в данной новости.