Подписывайся на наш канал в Telegram https://t.me/torrentok и получи доступ к торрентам без ограничений!

Американская готика / American Gothic (2016) WEB-DL [H.264 / 1080p-LQ] (сезон 1, серии 1-1 из 13) NewStudio (обновляемая) торрент скачать бесплатно

Американская готика / American Gothic (2016) WEB-DL [H.264 / 1080p-LQ] (сезон 1, серии 1-1 из 13) NewStudio (обновляемая)Производство: США
Жанр: детектив
Режиссер: Мэтт Шекман

Актеры
Джастин Чэтвин, Меган Кетч, Энтони Старр, Джульет Райлэнс, Стефани Леонидас, Габриел Бейтмен и др.

Описание

Действие сериала Американская готика разворачивается вокруг одного из самых богатых и влиятельных семейств Бостона, члены которого узнают, что недавно почивший глава семейства скорее всего был замешан в череде убийств, потрясших город в минувшее десятилетие. Но еще большим ударом для клана становится тот факт, что кто-то из ныне здравствующих членов семьи мог быть его сообщником.

Дата мировой премьеры: 22 июня 2016
Продолжительность: ~00: 44: 00 серия
Качество видео: WEB-DL
Перевод: Многоголосый закадровый, профессиональный -NewStudio
Реклама: присутствуют аудио вставки рекламы.
Видео: AVC/H.264, 1920х1080, ~4757 Kbps
Аудио #1 Rus: AC3, 6 ch, 384 kbps - многоголосый закадровый
Аудио #2 Eng: AC3, 2 ch, 384 kbps - оригинальный Код:
American.Gothic.2016.s01e01.WEBDL.1080p.NewStudio.mkv
Format : Matroska
Format version : Version 4/Version 2
File size : 1.58 GiB
Duration : 41mn 2s
Overall bit rate : 5 527 Kbps
Encoded date : UTC 2016-06-25 14:23:16
Writing application : mkvmerge v8.2.0 (\'World of Adventure\') 32bit
Writing library : libebml v1.3.1 + libmatroska v1.4.2
Video
ID : 1
Format : AVC
Format/Info : Advanced Video Codec
Format profile : [email protected]
Format settings, CABAC : Yes
Format settings, ReFrames : 4 frames
Codec ID : V_MPEG4/ISO/AVC
Duration : 41mn 2s
Bit rate : 4 757 Kbps
Width : 1 920 pixels
Height : 1 080 pixels
Display aspect ratio : 16:9
Frame rate mode : Constant
Frame rate : 23.976 (23976/1000) fps
Color space : YUV
Chroma subsampling : 4:2:0
Bit depth : 8 bits
Scan type : Progressive
Bits/(Pixel*Frame) : 0.096
Stream size : 1.36 GiB (86%)
Language : English
Default : Yes
Forced : No
Color range : Limited
Color primaries : BT.709
Transfer characteristics : BT.709
Matrix coefficients : BT.709
Audio #1
ID : 2
Format : AC-3
Format/Info : Audio Coding 3
Mode extension : CM (complete main)
Format settings, Endianness : Big
Codec ID : A_AC3
Duration : 41mn 2s
Bit rate mode : Constant
Bit rate : 384 Kbps
Channel(s) : 6 channels
Channel positions : Front: L C R, Side: L R, LFE
Sampling rate : 48.0 KHz
Frame rate : 31.250 fps (1536 spf)
Compression mode : Lossy
Stream size : 113 MiB (7%)
Title : NewStudio.TV
Language : Russian
Default : Yes
Forced : No
Audio #2
ID : 3
Format : AC-3
Format/Info : Audio Coding 3
Mode extension : CM (complete main)
Format settings, Endianness : Big
Codec ID : A_AC3
Duration : 41mn 2s
Bit rate mode : Constant
Bit rate : 384 Kbps
Channel(s) : 6 channels
Channel positions : Front: L C R, Side: L R, LFE
Sampling rate : 48.0 KHz
Frame rate : 31.250 fps (1536 spf)
Compression mode : Lossy
Stream size : 113 MiB (7%)
Language : English
Default : No
Forced : No


Скриншоты для ознакомления




Онлайн видео Американская готика

Другие торренты по теме:

  • Американская готика / American Gothic (2016) HDTVRip (сезон 1, серии 1 из 13) OMSKBIRD (обновляемая)
  • Американская готика / American Gothic (2016) HDTV [H.264 / 720p-LQ] (сезон 1, серии 1 из 13) OMSKBIRD (обновляемая)
  • Американская готика / American Gothic (2016) WEB-DLRip [H.264 / 720p-LQ] (сезон 1, серии 1 из 8) NewStudio (обновляемая)
  • Американская готика / American Gothic (2016) WEB-DLRip [H.264 / 1080p-LQ] (сезон 1, серии 1-4 из 13) BaibaKo (обновляемая)
  • Американская готика / American Gothic (2016) WEB-DLRip [H.264] (сезон 1, серии 1-13 из 13) BaibaKo [MP4|1024x576]

  • Посетители, находящиеся в группе Гости, не могут оставлять комментарии в данной новости.