Подписывайся на наш канал в Telegram https://t.me/torrentok и получи доступ к торрентам без ограничений!

Водолей / Aquarius (2016) WEB-DLRip (сезон 2, серии 1-4 из 13) NewStudio (обновляемая) торрент скачать бесплатно

Водолей / Aquarius (2016) WEB-DLRip (сезон 2, серии 1-4 из 13) NewStudio (обновляемая)Производство: США/King Baby, McNamara Moving Company, Tomorrow Studios
Жанр: драма, криминал
Режиссер: Джонас Пейт, Майкл Цинберг, Джон Эмиел

Актеры
Дэвид Духовны, Эмма Дюмон, Уитни Роуз Пинн, Дэвид Мюнье, Гетин Энтони, Клер Холт, Милона Джексон, Грэй Дэймон, Чэнс Келли, Михаэлла МакМанус и др.

Описание

Сюжет сериала основан на реальной истории организации Семья руководимой Чарльзом Мэнсоном. События фильма начинают развиваться в 1967-м году. Полицейскому Сэму поручают расследовать похищение дочери известного адвоката. Он обращается за помощью к своему коллеге, работающему под прикрытием в среде подростков-хиппи. Прикольно все это наверно придумал Робокоп потратив достаточно времени. Вместе они выходят на Чарльза Мэнсона, собравшего на своем ранчо группу детей, среди которых он пропагандирует культуру хиппи, наркотики и групповой секс. Через два года череда зверских убийств, совершенных приспешниками Мэнсона, заставит содрогнуться от ужаса всю Америку.

Возраст: 16+ (зрителям, достигшим 16 лет)
Продолжительность: ~00: 43: 00 серия
Качество видео: WEB-DLRip
Перевод: Многоголосый закадровый, профессиональный -NewStudio
Автор перевода: Ирина Гвозденко
Видео: XviD, 720х400 (16: 9), ~1455 kb/s
Аудио Rus: MPEG Layer 3, 2 ch, 128 kb/s, CBR - многоголосый закадровый
Аудио Eng: MPEG Layer 3, 2 ch, 128 kb/s, CBR - оригинал Код:
Общее
Полное имя : D:Водолей (сезон любимого сериала 2) Aquarius (2016) WEB-DLRip - NewStudioAquarius.S02E01.WEBDLRip.Rus.Eng.DV.NewStudio.avi
Формат : AVI
Формат/Информация : Audio Video Interleave
Размер файла : 532 Мбайт
Продолжительность : 43 м.
Общий поток : 1725 Кбит/сек
Название фильма : Aquarius.S02E01.WEBDLRip.Rus.Eng.DV.NewStudio/NNM-Club
Программа кодирования : VirtualDubModRus 1.5.10.2 (build 2542/release)
Библиотека кодирования : VirtualDubMod build 2542/release
Видео
Идентификатор : 0
Формат : MPEG-4 Visual
Профиль формата : Advanced [email protected]
Параметр BVOP формата : 2
Параметр QPel формата : Нет
Параметр GMC формата : Без точки перехода
Параметр матрицы формата : Default (MPEG)
Идентификатор кодека : XVID
Идентификатор кодека/Подсказка : XviD
Продолжительность : 43 м.
Битрейт : 1455 Кбит/сек
Ширина : 720 пикселей
Высота : 400 пикселей
Соотношение сторон : 16:9
Частота кадров : 23, 976 (23976/1000) кадра/сек
Цветовое пространство : YUV
Субдискретизация насыщенности : 4:2:0
Битовая глубина : 8 бит
Тип развёртки : Прогрессивная
Метод сжатия : С потерями
Бит/(Пиксели*Кадры) : 0.211
Размер потока : 449 Мбайт (84%)
Библиотека кодирования : XviD 73
Аудио #1
Идентификатор : 1
Формат : MPEG Audio
Версия формата : Version 1
Профиль формата : Layer 3
Режим : Joint stereo
Расширение режима : MS Stereo
Идентификатор кодека : 55
Идентификатор кодека/Подсказка : MP3
Продолжительность : 43 м.
Вид битрейта : Постоянный
Битрейт : 128 Кбит/сек
Каналы : 2 канала
Частота : 48, 0 КГц
Метод сжатия : С потерями
Размер потока : 39, 5 Мбайт (7%)
Выравнивание : Соединение по промежуткам
Продолжительность промежутка : 42 мс. (1, 00 видеокадр)
Время предзагрузки промежутка : 504 мс.
Аудио #2
Идентификатор : 2
Формат : MPEG Audio
Версия формата : Version 1
Профиль формата : Layer 3
Режим : Joint stereo
Расширение режима : MS Stereo
Идентификатор кодека : 55
Идентификатор кодека/Подсказка : MP3
Продолжительность : 43 м.
Вид битрейта : Постоянный
Битрейт : 128 Кбит/сек
Каналы : 2 канала
Частота : 48, 0 КГц
Метод сжатия : С потерями
Размер потока : 39, 5 Мбайт (7%)
Выравнивание : Соединение по промежуткам
Продолжительность промежутка : 42 мс. (1, 00 видеокадр)
Время предзагрузки промежутка : 504 мс.
Библиотека кодирования : LAME3.99.5


Скриншоты для ознакомления




Онлайн видео Водолей

Другие торренты по теме:

  • Водолей / Aquarius (2015) WEB-DLRip (сезон 1, серии 1 из 13) NewStudio (обновляемая) скачать через торрент бесплатно
  • Водолей / Aquarius (2015) WEB-DL [H.264 / 1080p-LQ] (сезон 1, серии 1-3 из 13) (NewStudio) (обновляемая) скачать через торрент бесплатно
  • Водолей / Aquarius (2015) WEB-DLRip (сезон 1, серии 01-04 из 13) Jaskier (обновляемая) скачать через торрент бесплатно
  • Водолей / Aquarius (2015) WEB-DL [H.264 / 720p-LQ] (Сезон 1, серии 1-3 из 13) (NewStudio) (обновляемая) скачать через торрент бесплатно
  • Водолей / Aquarius (2016) WEB-DL [H.264 / 720p-LQ] (сезон 2, серии 1-3 из 13) OMSKBIRD (обновляемая)
  • Водолей / Aquarius (2016) WEB-DLRip (сезон 2, серии 1-3 из 13) OMSKBIRD (обновляемая)
  • Водолей / Aquarius (2016) WEB-DL [H.264 / 1080p-LQ] (сезон 2, серии 1-4 из 13) NewStudio (обновляемая)
  • Водолей / Aquarius (2015) WEB-DLRip [H.264] (сезон 1, серии 1-13 из 13) NewStudio [MP4|1280x716]

  • Посетители, находящиеся в группе Гости, не могут оставлять комментарии в данной новости.