Подписывайся на наш канал в Telegram https://t.me/torrentok и получи доступ к торрентам без ограничений!

Всё ещё Король / Still the King (2016) WEB-DLRip [H.264 / 720p-LQ] (сезон 1, серии 1-4 из 13) IdeaFilm (обновляемая) торрент скачать бесплатно

Всё ещё Король / Still the King (2016) WEB-DLRip [H.264 / 720p-LQ] (сезон 1, серии 1-4 из 13) IdeaFilm (обновляемая)Производство: США
Жанр: Комедия
Режиссер: Джон Полл, Тамра Дэвис

Актеры
Мэдисон Исман, Рик Бюси, Джастин Дрей, Джошуа Чайлдз, Блэйз Миллер, Майкл Лус, Нева Хауэлл, Уолтер К. Блошиный рынок, сказал кто то из толпы, к чему не понятно. Джордан, Марк Повинелли и др.

Описание

Комедия расскажет о похождениях бывшего кантри-певца, пьяницы и разгильдяя Вернона Брауна. После двадцати лет прозябания на задворках музыкальной индустрии, Вернон приезжает в Неваду, чтобы сделать карьеру лучшего имитатора Элвиса Пресли. Но об этом плане приходится забыть, когда Вернон устраивает пьяный дебош и врезается в здание церкви Лафлина, за что приговаривается к общественным работам. Чтобы избежать наказания, Вернону приходит в голову гениальная идея - выдать себя за нового пастора.

Дата мировой премьеры: 12 июня 2016
Продолжительность: ~ 00: 23: 30 серия
Качество видео: WEB-DL
Перевод: Многоголосый закадровый, профессиональный -IdeaFilm
Реклама: присутствуют аудио и видео вставки рекламы.
Видео: AVC/H.264, 1280х720, ~3 716 Kbps, 23.976 fps
Аудио Rus: AC-3, 2 ch, 48.0 KHz, 192 Kbps - многоголосый закадровый
Аудио Eng: AAC, 2 ch, 48.0 KHz, 152 Kbps - оригинал Код:
IDEAFILMStill.The.King.S01E01.2016.WEB-DL.720p-IDEAFILM.mkv
Format : Matroska
Format version : Version 4/Version 2
File size : 658 MiB
Duration : 22mn 39s
Overall bit rate mode : Variable
Overall bit rate : 4 059 Kbps
Encoded date : UTC 2016-06-15 05:22:22
Writing application : mkvmerge v8.6.1 (\'Flying\') 64bit
Writing library : libebml v1.3.3 + libmatroska v1.4.4
Video
ID : 1
Format : AVC
Format/Info : Advanced Video Codec
Format profile :[email protected]
Format settings, CABAC : Yes
Format settings, ReFrames : 3 frames
Codec ID : V_MPEG4/ISO/AVC
Duration : 22mn 39s
Bit rate mode : Variable
Bit rate : 3 716 Kbps
Maximum bit rate : 4 000 Kbps
Width : 1 280 pixels
Height : 720 pixels
Display aspect ratio : 16:9
Frame rate mode : Constant
Frame rate : 23.976 (23976/1000) fps
Original frame rate : 23.976 (24000/1001) fps
Standard : NTSC
Color space : YUV
Chroma subsampling : 4:2:0
Bit depth : 8 bits
Scan type : Progressive
Bits/(Pixel*Frame) : 0.168
Stream size : 602 MiB (92%)
Language : English
Default : Yes
Forced : No
Color range : Limited
Color primaries : BT.709
Transfer characteristics : BT.709
Matrix coefficients : BT.709
Audio #1
ID : 2
Format : AC-3
Format/Info : Audio Coding 3
Mode extension : CM (complete main)
Format settings, Endianness : Big
Codec ID : A_AC3
Duration : 22mn 39s
Bit rate mode : Constant
Bit rate : 192 Kbps
Channel(s) : 2 channels
Channel positions : Front: L R
Sampling rate : 48.0 KHz
Frame rate : 31.250 fps (1536 spf)
Compression mode : Lossy
Stream size : 31.1 MiB (5%)
Title : IDEAFILM
Language : Russian
Default : Yes
Forced : No
Audio #2
ID : 3
Format : AAC
Format/Info : Advanced Audio Codec
Format profile : LC
Codec ID : A_AAC
Duration : 22mn 7s
Bit rate : 152 Kbps
Channel(s) : 2 channels
Channel positions : Front: L R
Sampling rate : 48.0 KHz
Frame rate : 46.875 fps (1024 spf)
Compression mode : Lossy
Delay relative to video : 32s 0ms
Stream size : 24.1 MiB (4%)
Language : English
Default : No
Forced : No


Скриншоты для ознакомления




Онлайн видео Всё ещё Король

Другие торренты по теме:

  • Всё ещё Король / Still the King (2016) WEB-DL [H.264 / 720p-LQ] (сезон 1, серии 1 из 13) BaibaKo (обновляемая)

  • Посетители, находящиеся в группе Гости, не могут оставлять комментарии в данной новости.
    Для авторских прав
    Вход на сайт
    Навигация
    Популярное