Подписывайся на наш канал в Telegram https://t.me/torrentok и получи доступ к торрентам без ограничений!

Iron Maiden - Maiden England 88 (2013) DVD9 торрент скачать бесплатно

Iron Maiden - Maiden England 88 (2013) DVD9Производство: PMI (UK)
Режиссер: Steve Harris
Жанр: Heavy Metal (NWOBHM)
Состав:
Bruce Dickinson – Lead Vocals
Dave Murray – Lead Rhythm Guitars
Adrian Smith – Lead Rhythm Guitars, Backing Vocals
Steve Harris – Bass Guitar, Backing Vocals, Director, Editing
Nicko McBrain – Drums

Описание

Концерт Iron Maiden записанный 27 и 28 ноября 1988 года в National Exhibition Centre (Birmingham, England). Впервые был выпущен в ноябре 1989 на VHS. В 2013 переиздан на DVD и CD.
Продолжительность: 1: 49: 55
Качество видео: DVD9
Видео: MPEG-2, PAL, 720x576 (4: 3), ~6500 Kbps
Аудио1: LPCM, 3 ch, 1536 Kbps, 48KHz
Аудио2: DTS, 6 ch, 768 Kbps, 48KHz
Аудио3: DD AC3, 6 ch, 448 Kbps, 48KHz
Треклист:
01. Moonchild
02. The Evil That Men Do
03. The Prisoner
04. Still Life
05. Die With Your Boots On
06. Infinite Dreams
07. Killers
06. Can I Play With Madness
09. Heaven Can Wait
10. Wasted Years
11. The Clairvoyant
12. Seventh Son Of A Seventh Son
13. The Number Of The Beast
14. Hallowed Be Thy Name
15. Iron Maiden
16. Run To The Hills
17. Running Free
18. Sanctuary
General
Complete name : F: CONCERTIron Maiden - Maiden England \'88 (2013)VIDEO_TSVTS_01_3.VOB
Format : MPEG-PS
File size : 1 024 MiB
Duration : 15 min 12 s
Overall bit rate mode : Constant
Overall bit rate : 9 414 kb/s
Video
ID : 224 (0xE0)
Format : MPEG Video
Format version : Version 2
Format profile : [email protected]
Format settings, BVOP : Yes
Format settings, Matrix : Custom
Format settings, GOP : Variable
Format settings, picture struc : Frame
Duration : 15 min 12 s
Bit rate mode : Constant
Bit rate : 6 500 kb/s
Width : 720 pixels
Height : 576 pixels
Display aspect ratio : 4: 3
Frame rate : 25.000 FPS
Standard : PAL
Color space : YUV
Chroma subsampling : 4: 2: 0
Bit depth : 8 bits
Scan type : Interlaced
Scan order : Top Field First
Compression mode : Lossy
Bits/(Pixel*Frame) : 0.627
Time code of first frame : 10: 30: 24: 06
Time code source : Group of pictures t_head
Stream size : 706 MiB (69%)
Audio #1
ID : 189 (0xBD)-130 (0x82)
Format : AC-3
Format/Info : Audio Coding 3
Format settings, Endianness : Big
Muxing mode : DVD-Video
Duration : 15 min 12 s
Bit rate mode : Constant
Bit rate : 448 kb/s
Channel(s) : 6 channels
Channel positions : Front: L C R, Side: L R, LFE
Sampling rate : 48.0 kHz
Frame rate : 31.250 FPS (1536 spf)
Bit depth : 16 bits
Compression mode : Lossy
Delay relative to video : -416 ms
Stream size : 48.7 MiB (5%)
Service kind : Complete Main
Audio #2
ID : 189 (0xBD)-137 (0x89)
Format : DTS
Format/Info : Digital Theater Systems
Mode : 16
Format settings, Endianness : Big
Muxing mode : DVD-Video
Duration : 15 min 12 s
Bit rate mode : Constant
Bit rate : 755 kb/s
Channel(s) : 6 channels
Channel positions : Front: L C R, Side: L R, LFE
Sampling rate : 48.0 kHz
Frame rate : 93.750 FPS (512 spf)
Bit depth : 24 bits
Compression mode : Lossy
Delay relative to video : -448 ms
Stream size : 82.1 MiB (8%)
Audio #3
ID : 189 (0xBD)-160 (0xA0)
Format : PCM
Format settings, Endianness : Big
Format settings, Sign : Signed
Muxing mode : DVD-Video
Duration : 15 min 12 s
Bit rate mode : Constant
Bit rate : 1 536 kb/s
Channel(s) : 2 channels
Sampling rate : 48.0 kHz
Bit depth : 16 bits
Delay relative to video : -468 ms
Stream size : 167 MiB (16%)
Menu


Онлайн видео Iron Maiden

Другие торренты по теме:

  • VA - Kerrang! Presents Maiden Heaven A Tribute To Iron Maiden (2008) [MP3|320 кб / с]<Heavy Metal, Thrash Metal, Alternative Rock, Punk Rock> скачать через торрент бесплатно
  • VA - A Tribute To Iron Maiden (1997 - 2011) [MP3|192-320 кб / с]<NWOBHM, Heavy, Death, Thrash, String> скачать через торрент бесплатно
  • Iron Maiden - Flight 666 (2009) BDRip [H.264 / 1080р] скачать через торрент бесплатно
  • Iron Maiden - The Book of Souls (2015) [AAC|256 кб / с]<Heavy Metal / NWOBHM> скачать через торрент бесплатно
  • Iron Maiden - Brave New World (2000) [AAC|256 кб / с]<Heavy Metal, NWOBHM> скачать через торрент бесплатно
  • Iron Maiden - Somewhere Back In Time - The Best Of: 1980-1989 (2008) [FLAC|tracks+.cue]<Heavy Metal> скачать через торрент бесплатно
  • Iron Maiden - The Number Of The Beast (1982) Reissue, 1987, Fame [FLAC 2.0 24 / 96|image (Vinyl-Rip)]<Heavy Metal>
  • Iron Maiden - Rock in Rio (2002) DVD5

  • Посетители, находящиеся в группе Гости, не могут оставлять комментарии в данной новости.