Подписывайся на наш канал в Telegram https://t.me/torrentok и получи доступ к торрентам без ограничений!

Полицейский из Беверли Хиллз / Beverly Hills Cop (1984-1994) BDRip [H.265 / 1080p] [10-bit] [Trilogy] торрент скачать бесплатно

Полицейский из Беверли Хиллз / Beverly Hills Cop (1984-1994) BDRip [H.265 / 1080p] [10-bit] [Trilogy]Производство: США/Paramount Pictures, Don Simpson/Jerry Bruckheimer Films, Eddie Murphy Productions
Жанр: Боевик, Комедия, Криминал
Режиссер: Мартин Брест, Тони Скотт, Джон Лэндис

Актеры
Эдди Мёрфи, Джадж Райнхолд, Джон Эштон, Лиза Айлбакер, Ронни Кокс, Стивен Беркофф, Джеймс Руссо, Джонатан Бэнкс, Стивен Эллиот, Гилберт Р. Хилла, Юрген Прохнов, Ронни Кокс, Бриджит Нильсен, Аллен Гарфилд, Дин Стокуэлл, Пол Райзер, Гилберт Р. Хилл, Гектор Элизондо, Тереза Рэндл, Джон Тенни, Джои Траволта, Юджин Колльер, Джимми Ортега, Усон Илам, Рэй Лайкинс

Описание
Чернокожий детройтский полицейский с помощью своего удивительного дара находить выход из любого положения стоит на страже порядка и закона. Множество драк, перестрелок, погонь, хорошей музыки и отменного юмора.
Продолжительность: 01: 45: 04 | 1: 42: 58 | 1: 44: 14
Качество видео: BDRip
Перевод: Профессиональный многоголосый, авторский
Субтитры: Отсутствуют
Релиз от: leha19755 (KINO-MIX) Полицейский из Беверли Хиллз/Beverly Hills Cop. (1984) BDRip H.265/1080p 10-bit
Производство: США
Жанр: Боевик, Триллер, Комедия, Криминал
Режиссер: Мартин Брест

Актеры
Эдди Мёрфи, Джадж Райнхолд, Джон Эштон, Лиза Айлбакер, Ронни Кокс, Стивен Беркофф, Джеймс Руссо

Описание

Чернокожий детройтский полицейский встречается со школьным другом, которого долго не видел, и вдруг того убивают. В поисках убийц полицейский едет в Лос-Анджелес.

Возраст: 16+ (зрителям, достигшим 16 лет)
Рейтинг MPAA: R (лицам до 17 лет обязательно присутствие взрослого)
Релиз от: leha19755 (KINO-MIX)
Продолжительность: 01: 45: 04
Качество видео: BDRip
Перевод: Многоголосый закадровый, авторский
Субтитры: Нет
Видео: HEVC/H.265, 1920x1080, ~10.1 Mb/s
Аудио 1: AC3, 6 ch, 448 Kbps - AVO, (Михалёв)
Аудио 2: AC3, 6 ch, 448 Kbps - AVO, (Володарский)
Аудио 3: AC3, 6 ch, 448 Kbps - AVO, (Пучков)
Аудио 4: AC3, 2 ch, 192 Kbps - AVO, (Иванов)
Аудио 5: AC3, 2 ch, 192 Kbps - AVO, (Горчаков)
Аудио 6: AC3, 2 ch, 192 Kbps - AVO, (Готлиб)
Аудио 7: AC3, 6 ch, 448 Kbps - MVO, (Киномания)
Аудио 8: AC3, 6 ch, 448 Kbps - MVO
Аудио 9: AC3, 6 ch, 448 Kbps - MVO
Аудио 10: AC3, 2 ch, 192 Kbps - MVO
Общее
Уникальный идентификатор : 315311161004962657456104517280008952603 (0xED36B87E58BB5821A32BC2CEF892DB1B)
Полное имя : F: РАЗДАЧИПолицейский из Беверли-Хиллз 1-3Полицейский из Беверли-Хиллз-1.1984.BDRip 1080p.HEVC.mkv
Формат : Matroska
Версия формата : Version 4/Version 2
Размер файла : 9, 94 Гбайт
Продолжительность : 1 ч. 45 м.
Общий поток : 13, 5 Мбит/сек
Дата кодирования : UTC 2018-11-03 18: 44: 48
Программа кодирования : mkvmerge v28.0.0 (\'Voice In My Head\') 64-bit
Библиотека кодирования : libebml v1.3.6 + libmatroska v1.4.9/Lavf57.71.100
Обложка : Yes
Attachments : cover.png
ENCODING_INFO : MPEGTS MKV/H264 X265 CRF 18.0 Placebo/DTS-HD MA AC3 CBR 448kbps/DTS-HD MA AC3 CBR 448kbps/DTS AC3 CBR 448kbps/AC3 COPY Безопасное/AC3 COPY Безопасное/DTS AC3 CBR 448kbps/DTS AC3 CBR 448kbps/DTS AC3 CBR 448kbps/AC3 COPY Безопасное
Видео
Идентификатор : 1
Формат : HEVC
Формат/Информация : High Efficiency Video Coding
Профиль формата : Main10@L5.1@High
Идентификатор кодека : V_MPEGH/ISO/HEVC
Продолжительность : 1 ч. 45 м.
Битрейт : 10, 1 Мбит/сек
Ширина : 1920 пикселей
Высота : 1080 пикселей
Соотношение сторон : 16: 9
Режим частоты кадров : Постоянный
Частота кадров : 23, 976 (24000/1001) кадра/сек
Цветовое пространство : YUV
Субдискретизация насыщенности : 4: 2: 0
Битовая глубина : 10 бит
Бит/(Пиксели*Кадры) : 0.203
Размер потока : 7, 40 Гбайт (74%)
Библиотека кодирования : x265 2.8+74-fd517ae68f93: WindowsGCC 7.3.064 bit 10bit
Настройки программы : cpuid=1049583/frame-threads=9/numa-pools=8/wpp/no-pmode/no-pme/no-psnr/no-ssim/log-level=3/input-csp=1/input-res=1920x1080/interlace=0/total-frames=0/level-idc=51/high-tier=1/uhd-bd=0/ref=5/allow-non-conformance/no-repeat-t_heads/annexb/no-aud/no-hrd/info/hash=0/no-temporal-layers/open-gop/min-keyint=24/keyint=240/gop-lookahead=0/bframes=8/b-adapt=2/b-pyramid/bframe-bias=0/rc-lookahead=60/lookahead-slices=6/scenecut=40/radl=0/no-intra-refresh/ctu=64/min-cu-size=8/no-rect/no-amp/max-tu-size=32/tu-inter-depth=1/tu-intra-depth=1/limit-tu=0/rdoq-level=0/dynamic-rd=0.00/no-ssim-rd/signhide/no-tskip/nr-intra=0/nr-inter=0/no-constrained-intra/strong-intra-smoothing/max-merge=2/limit-refs=3/no-limit-modes/me=3/subme=7/merange=92/temporal-mvp/weightp/weightb/no-analyze-src-pics/deblock=-3: -3/sao/no-sao-non-deblock/rd=3/no-early-skip/rskip/no-fast-intra/no-tskip-fast/no-cu-lossless/no-b-intra/no-splitrd-skip/rdpenalty=0/psy-rd=2.00/psy-rdoq=0.00/no-rd-refine/no-lossless/cbqpoffs=0/crqpoffs=0/rc=crf/crf=18.0/qcomp=0.60/qpstep=4/stats-write=0/stats-read=0/vbv-maxrate=160000/vbv-bufsize=160000/vbv-init=0.9/crf-max=18.0/crf-min=0.0/ipratio=1.40/pbratio=1.30/aq-mode=1/aq-strength=1.00/cutree/zone-count=0/no-strict-cbr/qg-size=32/no-rc-grain/qpmax=69/qpmin=0/no-const-vbv/sar=1/overscan=0/videoformat=5/range=0/colorprim=2/transfer=2/colormatrix=2/chromaloc=0/display-window=0/max-cll=0, 0/min-luma=0/max-luma=1023/log2-max-poc-lsb=8/vui-timing-info/vui-hrd-info/slices=1/no-opt-qp-pps/no-opt-ref-list-length-pps/no-multi-pass-opt-rps/scenecut-bias=0.05/no-opt-cu-delta-qp/no-aq-motion/no-hdr/no-hdr-opt/no-dhdr10-opt/no-idr-recovery-sei/analysis-reuse-level=5/scale-factor=0/refine-intra=0/refine-inter=0/refine-mv=0/no-limit-sao/ctu-info=0/no-lowpass-dct/refine-mv-type=0/copy-pic=1/max-ausize-factor=1.0/no-dynamic-refine/no-single-sei
Default : Да
Forced : Нет
Аудио #1
Идентификатор : 2
Формат : AC-3
Формат/Информация : Audio Coding 3
Идентификатор кодека : A_AC3
Продолжительность : 1 ч. 45 м.
Вид битрейта : Постоянный
Битрейт : 448 Кбит/сек
Каналы : 6 каналов
Расположение каналов : Front: L C R, Side: L R, LFE
Частота : 48, 0 КГц
Частота кадров : 31, 250 кадров/сек (1536 SPF)
Битовая глубина : 16 бит
Метод сжатия : С потерями
Размер потока : 337 Мбайт (3%)
Заголовок : AVO - А. Михалёв
Язык : Russian
ServiceKind/String : Complete Main
Default : Нет
Forced : Нет
Аудио #2
Идентификатор : 3
Формат : AC-3
Формат/Информация : Audio Coding 3
Идентификатор кодека : A_AC3
Продолжительность : 1 ч. 45 м.
Вид битрейта : Постоянный
Битрейт : 448 Кбит/сек
Каналы : 6 каналов
Расположение каналов : Front: L C R, Side: L R, LFE
Частота : 48, 0 КГц
Частота кадров : 31, 250 кадров/сек (1536 SPF)
Битовая глубина : 16 бит
Метод сжатия : С потерями
Размер потока : 337 Мбайт (3%)
Заголовок : AVO - Л. Володарский
Язык : Russian
ServiceKind/String : Complete Main
Default : Нет
Forced : Нет
Аудио #3
Идентификатор : 4
Формат : AC-3
Формат/Информация : Audio Coding 3
Идентификатор кодека : A_AC3
Продолжительность : 1 ч. 45 м.
Вид битрейта : Постоянный
Битрейт : 448 Кбит/сек
Каналы : 6 каналов
Расположение каналов : Front: L C R, Side: L R, LFE
Частота : 48, 0 КГц
Частота кадров : 31, 250 кадров/сек (1536 SPF)
Битовая глубина : 16 бит
Метод сжатия : С потерями
Размер потока : 337 Мбайт (3%)
Заголовок : AVO - Д. Пучков
Язык : Russian
ServiceKind/String : Complete Main
Default : Нет
Forced : Нет
Аудио #4
Идентификатор : 5
Формат : AC-3
Формат/Информация : Audio Coding 3
Идентификатор кодека : A_AC3
Продолжительность : 1 ч. 45 м.
Вид битрейта : Постоянный
Битрейт : 192 Кбит/сек
Каналы : 2 канала
Расположение каналов : Front: L R
Частота : 48, 0 КГц
Частота кадров : 31, 250 кадров/сек (1536 SPF)
Битовая глубина : 16 бит
Метод сжатия : С потерями
Размер потока : 144 Мбайт (1%)
Заголовок : AVO - Иванов
Язык : Russian
ServiceKind/String : Complete Main
Default : Нет
Forced : Нет
Аудио #5
Идентификатор : 6
Формат : AC-3
Формат/Информация : Audio Coding 3
Идентификатор кодека : A_AC3
Продолжительность : 1 ч. 45 м.
Вид битрейта : Постоянный
Битрейт : 192 Кбит/сек
Каналы : 2 канала
Расположение каналов : Front: L R
Частота : 48, 0 КГц
Частота кадров : 31, 250 кадров/сек (1536 SPF)
Битовая глубина : 16 бит
Метод сжатия : С потерями
Размер потока : 144 Мбайт (1%)
Заголовок : AVO - В. Горчаков
Язык : Russian
ServiceKind/String : Complete Main
Default : Нет
Forced : Нет
Аудио #6
Идентификатор : 7
Формат : AC-3
Формат/Информация : Audio Coding 3
Идентификатор кодека : A_AC3
Продолжительность : 1 ч. 45 м.
Вид битрейта : Постоянный
Битрейт : 192 Кбит/сек
Каналы : 2 канала
Расположение каналов : Front: L R
Частота : 48, 0 КГц
Частота кадров : 31, 250 кадров/сек (1536 SPF)
Битовая глубина : 16 бит
Метод сжатия : С потерями
Размер потока : 144 Мбайт (1%)
Заголовок : AVO - А. Готлиб
Язык : Russian
ServiceKind/String : Complete Main
Default : Нет
Forced : Нет
Аудио #7
Идентификатор : 8
Формат : AC-3
Формат/Информация : Audio Coding 3
Идентификатор кодека : A_AC3
Продолжительность : 1 ч. 45 м.
Вид битрейта : Постоянный
Битрейт : 448 Кбит/сек
Каналы : 6 каналов
Расположение каналов : Front: L C R, Side: L R, LFE
Частота : 48, 0 КГц
Частота кадров : 31, 250 кадров/сек (1536 SPF)
Битовая глубина : 16 бит
Метод сжатия : С потерями
Размер потока : 337 Мбайт (3%)
Заголовок : MVO Киномания
Язык : Russian
ServiceKind/String : Complete Main
Default : Нет
Forced : Нет
Аудио #8
Идентификатор : 9
Формат : AC-3
Формат/Информация : Audio Coding 3
Идентификатор кодека : A_AC3
Продолжительность : 1 ч. 45 м.
Вид битрейта : Постоянный
Битрейт : 448 Кбит/сек
Каналы : 6 каналов
Расположение каналов : Front: L C R, Side: L R, LFE
Частота : 48, 0 КГц
Частота кадров : 31, 250 кадров/сек (1536 SPF)
Битовая глубина : 16 бит
Метод сжатия : С потерями
Размер потока : 337 Мбайт (3%)
Заголовок : MVO
Язык : Russian
ServiceKind/String : Complete Main
Default : Нет
Forced : Нет
Аудио #9
Идентификатор : 10
Формат : AC-3
Формат/Информация : Audio Coding 3
Идентификатор кодека : A_AC3
Продолжительность : 1 ч. 45 м.
Вид битрейта : Постоянный
Битрейт : 448 Кбит/сек
Каналы : 6 каналов
Расположение каналов : Front: L C R, Side: L R, LFE
Частота : 48, 0 КГц
Частота кадров : 31, 250 кадров/сек (1536 SPF)
Битовая глубина : 16 бит
Метод сжатия : С потерями
Размер потока : 337 Мбайт (3%)
Заголовок : MVO
Язык : Russian
ServiceKind/String : Complete Main
Default : Нет
Forced : Нет
Аудио #10
Идентификатор : 11
Формат : AC-3
Формат/Информация : Audio Coding 3
Идентификатор кодека : A_AC3
Продолжительность : 1 ч. 45 м.
Вид битрейта : Постоянный
Битрейт : 192 Кбит/сек
Каналы : 2 канала
Расположение каналов : Front: L R
Частота : 48, 0 КГц
Частота кадров : 31, 250 кадров/сек (1536 SPF)
Битовая глубина : 16 бит
Метод сжатия : С потерями
Размер потока : 144 Мбайт (1%)
Заголовок : MVO
Язык : Russian
ServiceKind/String : Complete Main
Default : Нет
Forced : Нет
Доп. информация : -
H.265/HEVC (High Efficiency Video Coding) - это новый стандарт кодирования видео.
- Стандарт H.265/HEVC является логическим продолжением стандарта
H.264/AVC (Advanced Video Coding), и характеризуется более эффективными
алгоритмами сжатия, а также поддержкой высокого разрешения вплоть до 8K UHD
(8192x4320). Первая версия стандарта H.265 была опубликована в начале 2013 года.
- Рипы в фомате HEVC поддерживается не всеми аппаратными проигрывателями.
- Для корректного воспроизведения может потребоваться обновление ПО.
- Владельцам несовместимого железа просьба не беспокоить,
есть альтернативные релизы.

Скриншоты для ознакомления



Все одноименные релизы в Клубе
Время раздачи: c 8: 00 до 22: 00 (до появления первых 3-5 скачавших) Полицейский из Беверли-Хиллз 2/Beverly Hills Cop II (1987) BDRip H.265/1080p 10-bit
Производство: США
Жанр: Боевик, Триллер, Комедия, Криминал
Режиссер: Тони Скотт

Актеры
Эдди Мёрфи, Джадж Райнхолд, Джон Эштон, Юрген Прохнов, Ронни Кокс, Бриджит Нильсен

Описание
Продолжение подвигов по поимке преступников веселого и находчивого полицейского Акселя. Сексапильная блондинка вместе с группой гангстеров грабит ювелирный магазин. Но неутомимый Аксель тут как тут, на страже порядка и закона.

Возраст: 16+ (зрителям, достигшим 16 лет)
Рейтинг MPAA: R (лицам до 17 лет обязательно присутствие взрослого)
Релиз от: leha19755 (KINO-MIX)
Продолжительность: 01: 42: 58
Качество видео: BDRip
Перевод: Многоголосый закадровый, авторский
Субтитры: Нет
Видео: HEVC/H.265, 1920x816, ~13.2 Mb/s
Аудио 1: AC3, 6 ch, 448 Kbps - AVO, (Михалёв)
Аудио 2: AC3, 6 ch, 448 Kbps - AVO, (Горчаков)
Аудио 3: AC3, 2 ch, 192 Kbps - AVO, (Дохалов)
Аудио 4: AC3, 2 ch, 192 Kbps - AVO, (неизвестный)
Аудио 5: AC3, 6 ch, 448 Kbps - MVO, (Киномания)
Аудио 6: AC3, 6 ch, 448 Kbps - MVO, (R5)
Аудио 7: AC3, 6 ch, 384 Kbps - MVO
Аудио 8: AC3, 2 ch, 192 Kbps - MVO, (Премьер)
Аудио 9: AC3, 2 ch, 192 Kbps - MVO, (СТС)Общее
Уникальный идентификатор : 272590636987285467318567819841823574065 (0xCD130C0A6082CB94DA7CB3A401680831)
Полное имя : F: РАЗДАЧИПолицейский из Беверли-Хиллз 1-3Полицейский из Беверли-Хиллз-2.1987.BDRip1080p.HEVC.mkv
Формат : Matroska
Версия формата : Version 4/Version 2
Размер файла : 11, 6 Гбайт
Продолжительность : 1 ч. 42 м.
Общий поток : 16, 2 Мбит/сек
Дата кодирования : UTC 2018-11-08 11: 26: 37
Программа кодирования : mkvmerge v28.0.0 (\'Voice In My Head\') 64-bit
Библиотека кодирования : libebml v1.3.6 + libmatroska v1.4.9/Lavf57.71.100
Обложка : Yes
Attachments : cover.png
ENCODING_INFO : MPEGTS MKV/H264 X265 CRF 18.0 Placebo/DTS-HD MA AC3 CBR 448kbps/DTS AC3 CBR 448kbps/AC3 AC3 CBR 448kbps/AC3 AC3 CBR 448kbps/AC3 AC3 CBR 384kbps/AC3 AC3 CBR 384kbps/AC3 AC3 CBR 384kbps/DTS-HD MA AC3 CBR 448kbps/DTS-HD MA AC3 CBR 448kbps
Видео
Идентификатор : 1
Формат : HEVC
Формат/Информация : High Efficiency Video Coding
Профиль формата : Main10@L5.1@High
Идентификатор кодека : V_MPEGH/ISO/HEVC
Продолжительность : 1 ч. 42 м.
Битрейт : 13, 2 Мбит/сек
Ширина : 1920 пикселей
Высота : 816 пикселей
Соотношение сторон : 2, 35: 1
Режим частоты кадров : Постоянный
Частота кадров : 23, 976 (24000/1001) кадра/сек
Цветовое пространство : YUV
Субдискретизация насыщенности : 4: 2: 0
Битовая глубина : 10 бит
Бит/(Пиксели*Кадры) : 0.352
Размер потока : 9, 52 Гбайт (82%)
Библиотека кодирования : x265 2.8+74-fd517ae68f93: WindowsGCC 7.3.064 bit 10bit
Настройки программы : cpuid=1049583/frame-threads=9/numa-pools=8/wpp/no-pmode/no-pme/no-psnr/no-ssim/log-level=3/input-csp=1/input-res=1920x816/interlace=0/total-frames=0/level-idc=51/high-tier=1/uhd-bd=0/ref=5/allow-non-conformance/no-repeat-t_heads/annexb/no-aud/no-hrd/info/hash=0/no-temporal-layers/open-gop/min-keyint=24/keyint=240/gop-lookahead=0/bframes=8/b-adapt=2/b-pyramid/bframe-bias=0/rc-lookahead=60/lookahead-slices=5/scenecut=40/radl=0/no-intra-refresh/ctu=64/min-cu-size=8/no-rect/no-amp/max-tu-size=32/tu-inter-depth=1/tu-intra-depth=1/limit-tu=0/rdoq-level=0/dynamic-rd=0.00/no-ssim-rd/signhide/no-tskip/nr-intra=0/nr-inter=0/no-constrained-intra/strong-intra-smoothing/max-merge=2/limit-refs=3/no-limit-modes/me=3/subme=7/merange=92/temporal-mvp/weightp/weightb/no-analyze-src-pics/deblock=-3: -3/sao/no-sao-non-deblock/rd=3/no-early-skip/rskip/no-fast-intra/no-tskip-fast/no-cu-lossless/no-b-intra/no-splitrd-skip/rdpenalty=0/psy-rd=2.00/psy-rdoq=0.00/no-rd-refine/no-lossless/cbqpoffs=0/crqpoffs=0/rc=crf/crf=18.0/qcomp=0.60/qpstep=4/stats-write=0/stats-read=0/vbv-maxrate=160000/vbv-bufsize=160000/vbv-init=0.9/crf-max=18.0/crf-min=0.0/ipratio=1.40/pbratio=1.30/aq-mode=1/aq-strength=1.00/cutree/zone-count=0/no-strict-cbr/qg-size=32/no-rc-grain/qpmax=69/qpmin=0/no-const-vbv/sar=1/overscan=0/videoformat=5/range=0/colorprim=2/transfer=2/colormatrix=2/chromaloc=0/display-window=0/max-cll=0, 0/min-luma=0/max-luma=1023/log2-max-poc-lsb=8/vui-timing-info/vui-hrd-info/slices=1/no-opt-qp-pps/no-opt-ref-list-length-pps/no-multi-pass-opt-rps/scenecut-bias=0.05/no-opt-cu-delta-qp/no-aq-motion/no-hdr/no-hdr-opt/no-dhdr10-opt/no-idr-recovery-sei/analysis-reuse-level=5/scale-factor=0/refine-intra=0/refine-inter=0/refine-mv=0/no-limit-sao/ctu-info=0/no-lowpass-dct/refine-mv-type=0/copy-pic=1/max-ausize-factor=1.0/no-dynamic-refine/no-single-sei
Default : Да
Forced : Нет
Аудио #1
Идентификатор : 2
Формат : AC-3
Формат/Информация : Audio Coding 3
Идентификатор кодека : A_AC3
Продолжительность : 1 ч. 42 м.
Вид битрейта : Постоянный
Битрейт : 448 Кбит/сек
Каналы : 6 каналов
Расположение каналов : Front: L C R, Side: L R, LFE
Частота : 48, 0 КГц
Частота кадров : 31, 250 кадров/сек (1536 SPF)
Битовая глубина : 16 бит
Метод сжатия : С потерями
Размер потока : 330 Мбайт (3%)
Заголовок : AVO - А. Михалёв
Язык : Russian
ServiceKind/String : Complete Main
Default : Да
Forced : Нет
Аудио #2
Идентификатор : 3
Формат : AC-3
Формат/Информация : Audio Coding 3
Идентификатор кодека : A_AC3
Продолжительность : 1 ч. 42 м.
Вид битрейта : Постоянный
Битрейт : 448 Кбит/сек
Каналы : 6 каналов
Расположение каналов : Front: L C R, Side: L R, LFE
Частота : 48, 0 КГц
Частота кадров : 31, 250 кадров/сек (1536 SPF)
Битовая глубина : 16 бит
Метод сжатия : С потерями
Размер потока : 330 Мбайт (3%)
Заголовок : AVO - В. Горчаков
Язык : Russian
ServiceKind/String : Complete Main
Default : Нет
Forced : Нет
Аудио #3
Идентификатор : 4
Формат : AC-3
Формат/Информация : Audio Coding 3
Идентификатор кодека : A_AC3
Продолжительность : 1 ч. 42 м.
Вид битрейта : Постоянный
Битрейт : 192 Кбит/сек
Каналы : 2 канала
Расположение каналов : Front: L R
Частота : 48, 0 КГц
Частота кадров : 31, 250 кадров/сек (1536 SPF)
Битовая глубина : 16 бит
Метод сжатия : С потерями
Размер потока : 141 Мбайт (1%)
Заголовок : AVO - В. Дохалов
Язык : Russian
ServiceKind/String : Complete Main
Default : Нет
Forced : Нет
Аудио #4
Идентификатор : 5
Формат : AC-3
Формат/Информация : Audio Coding 3
Идентификатор кодека : A_AC3
Продолжительность : 1 ч. 42 м.
Вид битрейта : Постоянный
Битрейт : 192 Кбит/сек
Каналы : 2 канала
Расположение каналов : Front: L R
Частота : 48, 0 КГц
Частота кадров : 31, 250 кадров/сек (1536 SPF)
Битовая глубина : 16 бит
Метод сжатия : С потерями
Размер потока : 141 Мбайт (1%)
Заголовок : AVO - неизвестный
Язык : Russian
ServiceKind/String : Complete Main
Default : Нет
Forced : Нет
Аудио #5
Идентификатор : 6
Формат : AC-3
Формат/Информация : Audio Coding 3
Идентификатор кодека : A_AC3
Продолжительность : 1 ч. 42 м.
Вид битрейта : Постоянный
Битрейт : 448 Кбит/сек
Каналы : 6 каналов
Расположение каналов : Front: L C R, Side: L R, LFE
Частота : 48, 0 КГц
Частота кадров : 31, 250 кадров/сек (1536 SPF)
Битовая глубина : 16 бит
Метод сжатия : С потерями
Размер потока : 330 Мбайт (3%)
Заголовок : MVO #1 - Киномания
Язык : Russian
ServiceKind/String : Complete Main
Default : Нет
Forced : Нет
Аудио #6
Идентификатор : 7
Формат : AC-3
Формат/Информация : Audio Coding 3
Идентификатор кодека : A_AC3
Продолжительность : 1 ч. 42 м.
Вид битрейта : Постоянный
Битрейт : 448 Кбит/сек
Каналы : 6 каналов
Расположение каналов : Front: L C R, Side: L R, LFE
Частота : 48, 0 КГц
Частота кадров : 31, 250 кадров/сек (1536 SPF)
Битовая глубина : 16 бит
Метод сжатия : С потерями
Размер потока : 330 Мбайт (3%)
Заголовок : MVO #2 - R5
Язык : Russian
ServiceKind/String : Complete Main
Default : Нет
Forced : Нет
Аудио #7
Идентификатор : 8
Формат : AC-3
Формат/Информация : Audio Coding 3
Идентификатор кодека : A_AC3
Продолжительность : 1 ч. 42 м.
Вид битрейта : Постоянный
Битрейт : 384 Кбит/сек
Каналы : 6 каналов
Расположение каналов : Front: L C R, Side: L R, LFE
Частота : 48, 0 КГц
Частота кадров : 31, 250 кадров/сек (1536 SPF)
Битовая глубина : 16 бит
Метод сжатия : С потерями
Размер потока : 283 Мбайт (2%)
Заголовок : MVO #3
Язык : Russian
ServiceKind/String : Complete Main
Default : Нет
Forced : Нет
Аудио #8
Идентификатор : 9
Формат : AC-3
Формат/Информация : Audio Coding 3
Идентификатор кодека : A_AC3
Продолжительность : 1 ч. 42 м.
Вид битрейта : Постоянный
Битрейт : 192 Кбит/сек
Каналы : 2 канала
Расположение каналов : Front: L R
Частота : 48, 0 КГц
Частота кадров : 31, 250 кадров/сек (1536 SPF)
Битовая глубина : 16 бит
Метод сжатия : С потерями
Размер потока : 141 Мбайт (1%)
Заголовок : MVO #4 - Премьер
Язык : Russian
ServiceKind/String : Complete Main
Default : Нет
Forced : Нет
Аудио #9
Идентификатор : 10
Формат : AC-3
Формат/Информация : Audio Coding 3
Идентификатор кодека : A_AC3
Продолжительность : 1 ч. 42 м.
Вид битрейта : Постоянный
Битрейт : 192 Кбит/сек
Каналы : 2 канала
Расположение каналов : Front: L R
Частота : 48, 0 КГц
Частота кадров : 31, 250 кадров/сек (1536 SPF)
Битовая глубина : 16 бит
Метод сжатия : С потерями
Размер потока : 141 Мбайт (1%)
Заголовок : MVO #5 - СТС
Язык : Russian
ServiceKind/String : Complete Main
Default : Нет
Forced : НетДоп. информация : -
H.265/HEVC (High Efficiency Video Coding) - это новый стандарт кодирования видео.
- Стандарт H.265/HEVC является логическим продолжением стандарта
H.264/AVC (Advanced Video Coding), и характеризуется более эффективными
алгоритмами сжатия, а также поддержкой высокого разрешения вплоть до 8K UHD
(8192x4320). Первая версия стандарта H.265 была опубликована в начале 2013 года.
- Рипы в фомате HEVC поддерживается не всеми аппаратными проигрывателями.
- Для корректного воспроизведения может потребоваться обновление ПО.
- Владельцам несовместимого железа просьба не беспокоить,
есть альтернативные релизы.

Скриншоты для ознакомления



Все одноименные релизы в Клубе
Время раздачи: c 8: 00 до 22: 00 (до появления первых 3-5 скачавших) Полицейский из Беверли-Хиллз 3/Beverly Hills Cop III(1994) BDRip H.265/1080p 10-bit
Производство: США
Жанр: Боевик, Триллер, Комедия, Криминал
Режиссер: Джон Лэндис

Актеры
Эдди Мёрфи, Джон Тенни, Джои Траволта, Юджин Колльер, Джимми Ортега

Описание
После перерыва в семь лет полицейский из Детройта Аксель Фоули снова вынужден побывать у своих друзей в Беверли-Хиллз. Его приводят туда поиски убийцы любимого шефа.

Возраст: 16+ (зрителям, достигшим 16 лет)
Рейтинг MPAA: R (лицам до 17 лет обязательно присутствие взрослого)
Релиз от: leha19755 (KINO-MIX)
Продолжительность: 01: 44: 14
Качество видео: BDRip
Перевод: Многоголосый закадровый, авторский
Субтитры: Нет
Видео: HEVC/H.265, 1916x1080, ~7070 Kbps
Аудио 1: AC3, 6 ch, 448 Kbps - AVO, (Гаврилов)
Аудио 2: AC3, 2 ch, 192 Kbps - AVO, (Пронин)
Аудио 3: AC3, 6 ch, 448 Kbps - MVO, (Киномания)
Аудио 4: AC3, 6 ch, 448 Kbps - MVO, (R5)
Аудио 5: AC3, 2 ch, 192 Kbps - MVO, (Премьер)
Аудио 6: AC3, 2 ch, 192 Kbps - MVO, (СТС)
Аудио 7: AC3, 6 ch, 384 Kbps - MVOОбщее
Уникальный идентификатор : 129802043314700091630049661913826533021 (0x61A6F6D6386840AA5216C9E8FB771E9D)
Полное имя : F: РАЗДАЧИПолицейский из Беверли-Хиллз 1-3Полицейский из Беверли-Хиллз-3.1994.BDRip1080p.HEVC.mkv
Формат : Matroska
Версия формата : Version 4/Version 2
Размер файла : 6, 83 Гбайт
Продолжительность : 1 ч. 44 м.
Общий поток : 9377 Кбит/сек
Дата кодирования : UTC 2018-11-03 22: 16: 36
Программа кодирования : mkvmerge v28.0.0 (\'Voice In My Head\') 64-bit
Библиотека кодирования : libebml v1.3.6 + libmatroska v1.4.9/Lavf57.71.100
Обложка : Yes
Attachments : cover.png
ENCODING_INFO : MPEGTS MKV/H264 X265 CRF 18.0 Placebo/DTS AC3 CBR 448kbps
Видео
Идентификатор : 1
Формат : HEVC
Формат/Информация : High Efficiency Video Coding
Профиль формата : Main10@L5.1@High
Идентификатор кодека : V_MPEGH/ISO/HEVC
Продолжительность : 1 ч. 44 м.
Битрейт : 7070 Кбит/сек
Ширина : 1916 пикселей
Высота : 1080 пикселей
Соотношение сторон : 16: 9
Режим частоты кадров : Постоянный
Частота кадров : 23, 976 (24000/1001) кадра/сек
Цветовое пространство : YUV
Субдискретизация насыщенности : 4: 2: 0
Битовая глубина : 10 бит
Бит/(Пиксели*Кадры) : 0.143
Размер потока : 5, 15 Гбайт (75%)
Библиотека кодирования : x265 2.8+74-fd517ae68f93: WindowsGCC 7.3.064 bit 10bit
Настройки программы : cpuid=1049583/frame-threads=9/numa-pools=8/wpp/no-pmode/no-pme/no-psnr/no-ssim/log-level=3/input-csp=1/input-res=1916x1080/interlace=0/total-frames=0/level-idc=51/high-tier=1/uhd-bd=0/ref=5/allow-non-conformance/no-repeat-t_heads/annexb/no-aud/no-hrd/info/hash=0/no-temporal-layers/open-gop/min-keyint=24/keyint=240/gop-lookahead=0/bframes=8/b-adapt=2/b-pyramid/bframe-bias=0/rc-lookahead=60/lookahead-slices=6/scenecut=40/radl=0/no-intra-refresh/ctu=64/min-cu-size=8/no-rect/no-amp/max-tu-size=32/tu-inter-depth=1/tu-intra-depth=1/limit-tu=0/rdoq-level=0/dynamic-rd=0.00/no-ssim-rd/signhide/no-tskip/nr-intra=0/nr-inter=0/no-constrained-intra/strong-intra-smoothing/max-merge=2/limit-refs=3/no-limit-modes/me=3/subme=7/merange=92/temporal-mvp/weightp/weightb/no-analyze-src-pics/deblock=-3: -2/sao/no-sao-non-deblock/rd=3/no-early-skip/rskip/no-fast-intra/no-tskip-fast/no-cu-lossless/no-b-intra/no-splitrd-skip/rdpenalty=0/psy-rd=2.00/psy-rdoq=0.00/no-rd-refine/no-lossless/cbqpoffs=0/crqpoffs=0/rc=crf/crf=18.0/qcomp=0.60/qpstep=4/stats-write=0/stats-read=0/vbv-maxrate=160000/vbv-bufsize=160000/vbv-init=0.9/crf-max=18.0/crf-min=0.0/ipratio=1.40/pbratio=1.30/aq-mode=1/aq-strength=1.00/cutree/zone-count=0/no-strict-cbr/qg-size=32/no-rc-grain/qpmax=69/qpmin=0/no-const-vbv/sar=1/overscan=0/videoformat=5/range=0/colorprim=2/transfer=2/colormatrix=2/chromaloc=0/display-window=0/max-cll=0, 0/min-luma=0/max-luma=1023/log2-max-poc-lsb=8/vui-timing-info/vui-hrd-info/slices=1/no-opt-qp-pps/no-opt-ref-list-length-pps/no-multi-pass-opt-rps/scenecut-bias=0.05/no-opt-cu-delta-qp/no-aq-motion/no-hdr/no-hdr-opt/no-dhdr10-opt/no-idr-recovery-sei/analysis-reuse-level=5/scale-factor=0/refine-intra=0/refine-inter=0/refine-mv=0/no-limit-sao/ctu-info=0/no-lowpass-dct/refine-mv-type=0/copy-pic=1/max-ausize-factor=1.0/no-dynamic-refine/no-single-sei
Default : Да
Forced : Нет
Аудио #1
Идентификатор : 2
Формат : AC-3
Формат/Информация : Audio Coding 3
Идентификатор кодека : A_AC3
Продолжительность : 1 ч. 44 м.
Вид битрейта : Постоянный
Битрейт : 448 Кбит/сек
Каналы : 6 каналов
Расположение каналов : Front: L C R, Side: L R, LFE
Частота : 48, 0 КГц
Частота кадров : 31, 250 кадров/сек (1536 SPF)
Битовая глубина : 16 бит
Метод сжатия : С потерями
Размер потока : 334 Мбайт (5%)
Заголовок : AVO А.Гаврилов
Язык : Russian
ServiceKind/String : Complete Main
Default : Да
Forced : Нет
Аудио #2
Идентификатор : 3
Формат : AC-3
Формат/Информация : Audio Coding 3
Идентификатор кодека : A_AC3
Продолжительность : 1 ч. 44 м.
Вид битрейта : Постоянный
Битрейт : 192 Кбит/сек
Каналы : 2 канала
Расположение каналов : Front: L R
Частота : 48, 0 КГц
Частота кадров : 31, 250 кадров/сек (1536 SPF)
Битовая глубина : 16 бит
Метод сжатия : С потерями
Размер потока : 143 Мбайт (2%)
Заголовок : AVO А.Пронин
ServiceKind/String : Complete Main
Default : Нет
Forced : Нет
Аудио #3
Идентификатор : 4
Формат : AC-3
Формат/Информация : Audio Coding 3
Идентификатор кодека : A_AC3
Продолжительность : 1 ч. 44 м.
Вид битрейта : Постоянный
Битрейт : 448 Кбит/сек
Каналы : 6 каналов
Расположение каналов : Front: L C R, Side: L R, LFE
Частота : 48, 0 КГц
Частота кадров : 31, 250 кадров/сек (1536 SPF)
Битовая глубина : 16 бит
Метод сжатия : С потерями
Размер потока : 334 Мбайт (5%)
Заголовок : MVO Киномания
Язык : Russian
ServiceKind/String : Complete Main
Default : Нет
Forced : Нет
Аудио #4
Идентификатор : 5
Формат : AC-3
Формат/Информация : Audio Coding 3
Идентификатор кодека : A_AC3
Продолжительность : 1 ч. 44 м.
Вид битрейта : Постоянный
Битрейт : 448 Кбит/сек
Каналы : 6 каналов
Расположение каналов : Front: L C R, Side: L R, LFE
Частота : 48, 0 КГц
Частота кадров : 31, 250 кадров/сек (1536 SPF)
Битовая глубина : 16 бит
Метод сжатия : С потерями
Размер потока : 334 Мбайт (5%)
Заголовок : MVO R5
Язык : Russian
ServiceKind/String : Complete Main
Default : Нет
Forced : Нет
Аудио #5
Идентификатор : 6
Формат : AC-3
Формат/Информация : Audio Coding 3
Идентификатор кодека : A_AC3
Продолжительность : 1 ч. 44 м.
Вид битрейта : Постоянный
Битрейт : 192 Кбит/сек
Каналы : 2 канала
Расположение каналов : Front: L R
Частота : 48, 0 КГц
Частота кадров : 31, 250 кадров/сек (1536 SPF)
Битовая глубина : 16 бит
Метод сжатия : С потерями
Размер потока : 143 Мбайт (2%)
Заголовок : MVO Премьер
Язык : Russian
ServiceKind/String : Complete Main
Default : Нет
Forced : Нет
Аудио #6
Идентификатор : 7
Формат : AC-3
Формат/Информация : Audio Coding 3
Идентификатор кодека : A_AC3
Продолжительность : 1 ч. 44 м.
Вид битрейта : Постоянный
Битрейт : 192 Кбит/сек
Каналы : 2 канала
Расположение каналов : Front: L R
Частота : 48, 0 КГц
Частота кадров : 31, 250 кадров/сек (1536 SPF)
Битовая глубина : 16 бит
Метод сжатия : С потерями
Размер потока : 143 Мбайт (2%)
Заголовок : MVO СТС
Язык : Russian
ServiceKind/String : Complete Main
Default : Нет
Forced : Нет
Аудио #7
Идентификатор : 8
Формат : AC-3
Формат/Информация : Audio Coding 3
Идентификатор кодека : A_AC3
Продолжительность : 1 ч. 44 м.
Вид битрейта : Постоянный
Битрейт : 384 Кбит/сек
Каналы : 6 каналов
Расположение каналов : Front: L C R, Side: L R, LFE
Частота : 48, 0 КГц
Частота кадров : 31, 250 кадров/сек (1536 SPF)
Битовая глубина : 16 бит
Метод сжатия : С потерями
Размер потока : 286 Мбайт (4%)
Заголовок : MVO
Язык : Russian
ServiceKind/String : Complete Main
Default : Нет
Forced : НетДоп. информация : -
H.265/HEVC (High Efficiency Video Coding) - это новый стандарт кодирования видео.
- Стандарт H.265/HEVC является логическим продолжением стандарта
H.264/AVC (Advanced Video Coding), и характеризуется более эффективными
алгоритмами сжатия, а также поддержкой высокого разрешения вплоть до 8K UHD
(8192x4320). Первая версия стандарта H.265 была опубликована в начале 2013 года.
- Рипы в фомате HEVC поддерживается не всеми аппаратными проигрывателями.
- Для корректного воспроизведения может потребоваться обновление ПО.
- Владельцам несовместимого железа просьба не беспокоить,
есть альтернативные релизы.

Скриншоты для ознакомления



Все одноименные релизы в Клубе
Время раздачи: c 8: 00 до 22: 00 (до появления первых 3-5 скачавших) Производство: США/Paramount Pictures, Don Simpson/Jerry Bruckheimer Films, Eddie Murphy Productions
Жанр: Боевик, Комедия, Криминал
Режиссер: Мартин Брест, Тони Скотт, Джон Лэндис

Актеры
Эдди Мёрфи, Джадж Райнхолд, Джон Эштон, Лиза Айлбакер, Ронни Кокс, Стивен Беркофф, Джеймс Руссо, Джонатан Бэнкс, Стивен Эллиот, Гилберт Р. Хилла, Юрген Прохнов, Ронни Кокс, Бриджит Нильсен, Аллен Гарфилд, Дин Стокуэлл, Пол Райзер, Гилберт Р. Хилл, Гектор Элизондо, Тереза Рэндл, Джон Тенни, Джои Траволта, Юджин Колльер, Джимми Ортега, Усон Илам, Рэй Лайкинс

Описание
Чернокожий детройтский полицейский с помощью своего удивительного дара находить выход из любого положения стоит на страже порядка и закона. Множество драк, перестрелок, погонь, хорошей музыки и отменного юмора.
Продолжительность: 01: 45: 04 | 1: 42: 58 | 1: 44: 14
Качество видео: BDRip
Перевод: Профессиональный многоголосый, авторский
Субтитры: Отсутствуют


Скриншоты для ознакомления



Все одноименные релизы в Клубе
Время раздачи: c 8: 00 до 22: 00 (до появления первых 3-5 скачавших)

Онлайн видео Полицейский из Беверли Хиллз

Другие торренты по теме:

  • Полицейский из Беверли-Хиллз: Трилогия. / Beverly Hills Cop. Master Collection. (1984 / 1987 / 1994) HDRip [H.264] [MP4|1024x576|1024x436]
  • Полицейский из Беверли-Хиллз / Beverly Hills Cop (1984) BDRip [H.264 / 720p-LQ]
  • Полицейский из Беверли-Хиллз 3 / Beverly Hills Cop III (1994) BDRip [H.264 / 720p-LQ]
  • Полицейский из Беверли-Хиллз 2 / Beverly Hills Cop II (1987) BDRip [H.264 / 720p]
  • Полицейский из Беверли Хиллз / Beverly Hills Cop (1984) BDRip [H.264 / 720p]
  • Полицейский из Беверли Хиллз 3 / Beverly Hills Cop III (1994) BDRip [H.264 / 720p]
  • Полицейский из Беверли Хиллз / Beverly Hills Cop (1984) BDRip [H.264 / 720p] [Remastered]

  • Посетители, находящиеся в группе Гости, не могут оставлять комментарии в данной новости.