Подписывайся на наш канал в Telegram https://t.me/torrentok и получи доступ к торрентам без ограничений!

Безмолвные свидетели (Покойники) / Chen mo de zheng ren (Bodies at Rest) (2019) WEBRip [H.264 / 720p-LQ] [MVO] [AD] торрент скачать бесплатно

Безмолвные свидетели (Покойники) / Chen mo de zheng ren (Bodies at Rest) (2019) WEBRip [H.264 / 720p-LQ] [MVO] [AD]Производство: Китай, Гонконг/Media Asia, Wanda Media Co., Wanda Pictures
Жанр: Боевик, триллер, криминал, детектив
Режиссер: Ренни Харлин

Актеры
Ник Чун, Ричи Рен, Ян Цзы, Карлос Чан, Ма Шулян ...

Описание

Гонконг накануне Рождества. Три вооруженных человека в масках врываются в Центр судебной медицины, где остались только один патологоанатом, его ассистентка и пожилой охранник. Вторженцы не хотят никого ранить и требуют извлечь и отдать им пулю из недавно поступившего в морг тела дочери главы триады, но ответственный сотрудник выдает им пулю из другого трупа. Покинув здание, вскоре преступники обнаруживают подмену и возвращаются в Центр уже с намерением причинить его работникам боль.

Дата мировой премьеры: 18 марта 2019
Продолжительность: 01: 32: 55
Качество видео: WEBRip
Перевод: Многоголосый закадровый, любительский (КОЛОБОК)
Субтитры: Китайские, английские (хардсаб)
Реклама: Присутствует баннер.
Видео: AVC/H.264, 1280x536, ~5553 Kbps
Аудио: AC-3, 2 ch, 384 Kbps
Общее
Полное имя : D: NNMБезмолвные свидетелиBodies.at.Rest.2019.WEBRip.720p-LQ.mkv
Формат : Matroska
Версия формата : Version 2
Размер файла : 3, 93 Гбайт
Продолжительность : 1 ч. 32 м.
Режим общего битрейта : Переменный
Общий поток : 6058 Кбит/сек
Программа кодирования : libmatroska 1.4.1
Библиотека кодирования : SolveigMM Matroska Muxer Version 1.0.1502.31
Видео
Идентификатор : 1
Формат : AVC
Формат/Информация : Advanced Video Codec
Профиль формата : [email protected]
Настройки формата : CABAC/4 Ref Frames
Параметр CABAC формата : Да
Параметр RefFrames формата : 4 кадра
Идентификатор кодека : V_MPEG4/ISO/AVC
Продолжительность : 1 ч. 32 м.
Вид битрейта : Переменный
Битрейт : 5553 Кбит/сек
Номинальный битрейт : 6000 Кбит/сек
Максимальный битрейт : 6000 Кбит/сек
Ширина : 1280 пикселей
Высота : 536 пикселей
Соотношение сторон : 2, 40: 1
Режим частоты кадров : Постоянный
Частота кадров : 23, 976 (24000/1001) кадра/сек
Стандарт вещания : Component
Цветовое пространство : YUV
Субдискретизация насыщенности : 4: 2: 0
Битовая глубина : 8 бит
Тип развёртки : Прогрессивная
Бит/(Пиксели*Кадры) : 0.338
Размер потока : 3, 60 Гбайт (92%)
Default : Нет
Forced : Нет
Цветовой диапазон : Limited
Основные цвета : BT.709
Характеристики трансфера : BT.709
Коэффициенты матрицы : BT.709
Аудио
Идентификатор : 2
Формат : AC-3
Формат/Информация : Audio Coding 3
Коммерческое название : Dolby Digital
Идентификатор кодека : A_AC3
Продолжительность : 1 ч. 32 м.
Вид битрейта : Постоянный
Битрейт : 384 Кбит/сек
Каналы : 2 канала
ChannelLayout : L R
Частота : 48, 0 КГц
Частота кадров : 31, 250 кадров/сек (1536 SPF)
Битовая глубина : 16 бит
Метод сжатия : С потерями
Размер потока : 255 Мбайт (6%)
Язык : Russian
ServiceKind/String : Complete Main
Default : Нет
Forced : Нет

Скриншоты для ознакомления



Все одноименные релизы в Клубе Время раздачи: 24/7 (до появления первых 3-5 скачавших)

Онлайн видео Безмолвные свидетели (Покойники)

Другие торренты по теме:

  • Лора Перселл | Безмолвные компаньоны (2018) [FB2]
  • Оксана Глазнева | Безмолвные (2019) [FB2]
  • Безмолвные следы / Milczace slady (1961) DVDRip [H.264]

  • Посетители, находящиеся в группе Гости, не могут оставлять комментарии в данной новости.