Подписывайся на наш канал в Telegram https://t.me/torrentok и получи доступ к торрентам без ограничений!

Диверсант. Крым (2020) HDTVRip [H.264] (сезон 3, серии 1-4 из 4) торрент скачать бесплатно

Диверсант. Крым (2020) HDTVRip [H.264] (сезон 3, серии 1-4 из 4)Производство: Россия/Дивера
Жанр: военный, приключения, боевик, драма
Режиссер: Дмитрий Иосифов

Актеры
Кирилл Плетнёв, Алексей Бардуков, Сергей Колтаков, Артем Александров, Дирк Мартенс, Ангелина Стречина. Эльдар Калимулин, Джошуа Гроте, Марина Вайс-Бургаслиева, Дарья Румянцева и др.

Описание

Июль 1942 года. Алексей Бобриков и Леонид Филатов получают приказ о ликвидации попавшего в плен капитана 1-го ранга Ивана Александрова, виновного в сдаче одного из ключевых рубежей обороны Севастополя. Диверсанты отправляются на задание вдвоем. Установив связь с партизанским отрядом, Алексей и Леонид выдвигаются в город. Первая попытка выполнить приказ оканчивается неудачей: при покушении Александров ранен и госпитализирован в тщательно охраняемый немецкий военный санаторий. После второй попытки захватить Александрова Бобриков и Филатов оказываются в немецком плену…

Возраст: 16+ (зрителям, достигшим 16 лет)
Дата мировой премьеры: 09 мая 2020, Первый
Продолжительность: ~00: 52: 00 серия
Качество видео: SATRip
Видео: AVC/H.264, 1024x576 , ~2500 Kbps
Аудио: AC3, 2 ch, 192 KbpsОбщее
Уникальный идентификатор : 183170447687268548750091237992335267576 (0x89CD5852C1CF1C0BABFAA3AE54A1D6F8)
Полное имя : D: Диверсант. Крым1 серия_Диверсант-3_rip by_Aleksan55.mkv
Формат : Matroska
Версия формата : Version 2
Размер файла : 1019 Мбайт
Продолжительность : 52 м. 52 с.
Общий поток : 2693 Кбит/сек
Дата кодирования : UTC 2020-05-09 12: 44: 50
Программа кодирования : mkvmerge v7.8.0 (\'River Man\') 32bit built on Apr 3 2015 12: 11: 22
Библиотека кодирования : libebml v1.3.1 + libmatroska v1.4.2
Видео
Идентификатор : 1
Формат : AVC
Формат/Информация : Advanced Video Codec
Профиль формата : High@L4.1
Настройки формата : CABAC/12 Ref Frames
Параметр CABAC формата : Да
Параметр RefFrames формата : 12 кадров
Идентификатор кодека : V_MPEG4/ISO/AVC
Продолжительность : 52 м. 52 с.
Битрейт : 2500 Кбит/сек
Ширина : 1024 пикселя
Высота : 576 пикселей
Соотношение сторон : 16: 9
Режим частоты кадров : Постоянный
Частота кадров : 25, 000 кадров/сек
Цветовое пространство : YUV
Субдискретизация насыщенности : 4: 2: 0
Битовая глубина : 8 бит
Тип развёртки : Прогрессивная
Бит/(Пиксели*Кадры) : 0.170
Размер потока : 926 Мбайт (91%)
Библиотека кодирования : x264 core 146 r2538 121396c
Настройки программы : cabac=1/ref=12/deblock=1: 0: 0/analyse=0x3: 0x133/me=umh/subme=9/psy=1/psy_rd=1.00: 0.15/mixed_ref=0/me_range=24/chroma_me=1/trellis=2/8x8dct=1/cqm=0/deadzone=21, 11/fast_pskip=0/chroma_qp_offset=-3/threads=10/lookahead_threads=5/sliced_threads=0/nr=0/decimate=0/interlaced=0/bluray_compat=0/constrained_intra=0/bframes=12/b_pyramid=2/b_adapt=2/b_bias=0/direct=3/weightb=1/open_gop=0/weightp=2/keyint=250/keyint_min=25/scenecut=40/intra_refresh=0/rc_lookahead=40/rc=2pass/mbtree=1/bitrate=2500/ratetol=1.0/qcomp=0.60/qpmin=0/qpmax=69/qpstep=4/cplxblur=20.0/qblur=0.5/ip_ratio=1.40/aq=1: 1.00
Default : Да
Forced : Нет
Цветовой диапазон : Limited
Основные цвета : BT.709
Характеристики трансфера : BT.709
Коэффициенты матрицы : BT.709
Аудио
Идентификатор : 2
Формат : AC-3
Формат/Информация : Audio Coding 3
Коммерческое название : Dolby Digital
Идентификатор кодека : A_AC3
Продолжительность : 52 м. 52 с.
Вид битрейта : Постоянный
Битрейт : 192 Кбит/сек
Каналы : 2 канала
ChannelLayout : L R
Частота : 48, 0 КГц
Частота кадров : 31, 250 кадров/сек (1536 SPF)
Метод сжатия : С потерями
Размер потока : 72, 6 Мбайт (7%)
ServiceKind/String : Complete Main
Default : Да
Forced : Нет
Скриншоты для ознакомления


Все одноименные релизы в Клубе
Время раздачи: (до появления первых 3-5 скачавших)

Онлайн видео Диверсант. Крым (2020) HDTVRip [H.264] (сезон любимого сериала 3, серии 1

Другие торренты по теме:

  • Диверсант. Крым (2020) HDTV [H.264 / 1080i] (сезон 3, серии 1-4 из 4)
  • Диверсант. Крым (2020) SATRip (сезон 3, серии 1-4 из 4)
  • Диверсант. Крым (2020) HDTVRip [H.264] (сезон 3, серии 1-4 из 4)
  • Диверсант. Крым (2020) WEBRip [H.264 / 1080p-LQ] (сезон 3, серии 1-4 из 4)

  • Посетители, находящиеся в группе Гости, не могут оставлять комментарии в данной новости.