Подписывайся на наш канал в Telegram https://t.me/torrentok и получи доступ к торрентам без ограничений!

Пораженный / Afflicted (2013) HDRip торрент скачать бесплатно

Пораженный / Afflicted (2013) HDRipПроизводство: Канада, США/Automatik Entertainment, IM Global, Téléfilm Canada
Жанр: Ужасы, триллер
Режиссер: Дерек Ли, Клифф Проуз

Актеры
Дерек Ли, Клифф Проуз, Майкл Гилл, Байя Реас, Бенжамин Зэйтун, Зак Грей, Джейсон Ли, Эдо Ван Бримен, Гэри Ридекоп, Лили Пай Ли

Описание

Лучшие друзья Клифф и Дерек в поисках приключений отправляются в кругосветное путешествие. После загадочного знакомства с таинственной незнакомкой, Дерек переживает трансформацию и превращается в кровожадное создание. Наводящее ужас путешествие приводит друзей на край света…


Возраст: 16+ (зрителям, достигшим 16 лет)
Рейтинг MPAA: R (лицам до 17 лет обязательно присутствие взрослого)
Продолжительность: 01: 25: 18
Качество видео: HDRip
Перевод: Профессиональный двухголосый, любительский одноголосый
Субтитры: Нет
Видео: Xvid, 720х400, ~1954 Kbps
Аудио 1: AC3, 2 ch, 224 Kbps - Русский - DVO
Аудио 2: AC3, 2 ch, 224 Kbps - Русский - VO (datynet)
Complete name : D: 3.ТоррентыAfflicted_2013_HDRip.avi
Format : AVI
Format/Info : Audio Video Interleave
File size : 1.44 GiB
Duration : 1h 25mn
Overall bit rate : 2 416 Kbps
Writing application : VirtualDubMod 1.5.10.3 (build 2550/release)
Writing library : VirtualDubMod build 2550/release
Video
ID : 0
Format : MPEG-4 Visual
Format profile : Advanced [email protected]
Format settings, BVOP : 4
Format settings, QPel : No
Format settings, GMC : No warppoints
Format settings, Matrix : Default (MPEG)
Codec ID : XVID
Codec ID/Hint : XviD
Duration : 1h 25mn
Bit rate : 1 954 Kbps
Width : 720 pixels
Height : 400 pixels
Display aspect ratio : 16: 9
Frame rate : 23.976 fps
Color space : YUV
Chroma subsampling : 4: 2: 0
Bit depth : 8 bits
Scan type : Progressive
Compression mode : Lossy
Bits/(Pixel*Frame) : 0.283
Stream size : 1.16 GiB (81%)
Writing library : XviD 1.2.1 (UTC 2008-12-04)
Audio #1
ID : 1
Format : AC-3
Format/Info : Audio Coding 3
Mode extension : CM (complete main)
Format settings, Endianness : Big
Codec ID : 2000
Duration : 1h 25mn
Bit rate mode : Constant
Bit rate : 224 Kbps
Channel(s) : 2 channels
Channel positions : Front: L R
Sampling rate : 48.0 KHz
Bit depth : 16 bits
Compression mode : Lossy
Stream size : 137 MiB (9%)
Alignment : Split accross interleaves
Interleave, duration : 42 ms (1.00 video frame)
Interleave, preload duration : 500 ms
Audio #2
ID : 2
Format : AC-3
Format/Info : Audio Coding 3
Mode extension : CM (complete main)
Format settings, Endianness : Big
Codec ID : 2000
Duration : 1h 25mn
Bit rate mode : Constant
Bit rate : 224 Kbps
Channel(s) : 2 channels
Channel positions : Front: L R
Sampling rate : 48.0 KHz
Bit depth : 16 bits
Compression mode : Lossy
Stream size : 137 MiB (9%)
Alignment : Split accross interleaves
Interleave, duration : 42 ms (1.00 video frame)
Interleave, preload duration : 500 ms

Скриншоты для ознакомления



Все одноименные релизы в Клубе
Время раздачи: с 9-00 до 21-00 (до появления первых 3-5 скачавших)

Другие торренты по теме:

  • Пораженный / Afflicted (2013) HDRip скачать через торрент бесплатно

  • Посетители, находящиеся в группе Гости, не могут оставлять комментарии в данной новости.