Подписывайся на наш канал в Telegram https://t.me/torrentok и получи доступ к торрентам без ограничений!

Подлодка / The Hunley (1999) DVDRip торрент скачать бесплатно

Подлодка / The Hunley (1999) DVDRipПроизводство: США/Adelson Entertainment
Жанр: Боевик, Драма, Военный, История
Режиссер: Джон Грэй
Продюсер: Энджел Митч, Эндрю Эделсон, Александр Трэйси

Актеры
Арманд Ассанте, Дональд Сазерленд, Алекс Дженнингс, Крис Бауэр, Джерри Беккер, Майкл Долан, Себастьян Рош, Майкл Стулбарг, Джефф Мэндон, Джек Баун и др.

Описание

Гражданская война между Севером и Югом внесла свю лепту в историю морских сражений: на воду была спущена первая в истории человечества боевая подводная лодка Ханлей!
Южане сконструировали эту уникальную субмарину, как единственное оружие, которое было способно прорвать морскую блокаду северян.


Возраст: 12+ (зрителям, достигшим 12 лет)
Продолжительность: 01: 34: 24
Качество видео: DVDRip
Перевод: Двуголосый профессиональный
Язык озвучки: Русский
Субтитры: Нет
Видео: DivX, 704x528, ~1600 kbps
Аудио 1: AC3, 2 ch, 192 kbps - Русский (DVO)
Аудио 2: AC3, 2 ch, 192 kbps - Английский (Оригинал)
omplete name : H: Podlodka.1999.DVDRip.1, 3gb.avi
Format : AVI
Format/Info : Audio Video Interleave
File size : 1.32 GiB
Duration : 1h 34mn
Overall bit rate : 1 999 Kbps
Writing application : VirtualDubModRus 1.5.10.2 (build 2542/release)
Writing library : VirtualDubMod build 2542/release
Video
ID : 0
Format : MPEG-4 Visual
Format settings, BVOP : 1
Format settings, QPel : No
Format settings, GMC : No warppoints
Format settings, Matrix : Default (H.263)
Muxing mode : Packed bitstream
Codec ID : DX50
Codec ID/Hint : DivX 5
Duration : 1h 34mn
Bit rate : 1 600 Kbps
Width : 704 pixels
Height : 528 pixels
Display aspect ratio : 4: 3
Frame rate : 25.000 fps
Color space : YUV
Chroma subsampling : 4: 2: 0
Bit depth : 8 bits
Scan type : Progressive
Compression mode : Lossy
Bits/(Pixel*Frame) : 0.172
Stream size : 1.06 GiB (80%)
Writing library : DivX 2991
Audio #1
ID : 1
Format : AC-3
Format/Info : Audio Coding 3
Mode extension : CM (complete main)
Format settings, Endianness : Big
Codec ID : 2000
Duration : 1h 34mn
Bit rate mode : Constant
Bit rate : 192 Kbps
Channel(s) : 2 channels
Channel positions : Front: L R
Sampling rate : 48.0 KHz
Frame rate : 31.250 fps (1536 spf)
Compression mode : Lossy
Stream size : 130 MiB (10%)
Alignment : Split accross interleaves
Interleave, duration : 40 ms (1.00 video frame)
Interleave, preload duration : 500 ms
Audio #2
ID : 2
Format : AC-3
Format/Info : Audio Coding 3
Mode extension : CM (complete main)
Format settings, Endianness : Big
Codec ID : 2000
Duration : 1h 34mn
Bit rate mode : Constant
Bit rate : 192 Kbps
Channel(s) : 2 channels
Channel positions : Front: L R
Sampling rate : 48.0 KHz
Frame rate : 31.250 fps (1536 spf)
Compression mode : Lossy
Stream size : 130 MiB (10%)
Alignment : Split accross interleaves
Interleave, duration : 40 ms (1.00 video frame)
Interleave, preload duration : 500 ms

Другие торренты по теме:

  • Ударная сила. Самая таинственная российская подлодка (2006) WEB-DLRip [H.264-LQ]
  • Военная приемка. "Галтель". Подлодка-робот. (03.09.2017) SATRip
  • Подлодка / Torpedo (2020) HDRip [MVO] [AD]
  • Подлодка / Torpedo (2020) BDRip [H.264 / 720p-LQ] [MVO] [AD]

  • Посетители, находящиеся в группе Гости, не могут оставлять комментарии в данной новости.