Подписывайся на наш канал в Telegram https://t.me/torrentok и получи доступ к торрентам без ограничений!

Неуместный человек / Den Brysomme mannen (2006) DVDRip торрент скачать бесплатно

Неуместный человек / Den Brysomme mannen (2006) DVDRipПроизводство: Норвегия, Исландия/Sandrew Metronome Norge A/S, The Icelandic Filmcompany, Tordenfilm AS
Жанр: фэнтези, драма, комедия, детектив
Режиссер: Йенс Лиен

Актеры
Тронд Фауса Аурвааг, Петронелла Баркер, Пер Шаанинг, Биргитте Ларсен, Йоханнес Йонер, Эллен Хорн, Андерс Т. Андерсен, Сигве Бёэ, Ханна Линдбэк, Ивар Лукке

Описание

Сорокалетний Андреас при загадочных обстоятельствах попадает в странный город — абсолютная идиллия, опрятные улицы, благополучные жители. Его принимают на работу в офис большой компании — сотрудники благожелательны, условия работы безупречны. Андреас даже заводит себе жену и пытается наладить семейный быт.
Но Андреасу не по себе. Что-то не так. Люди вокруг лишены эмоций, существуют, как роботы, по какому-то заведенному порядку, но жизнью это назвать нельзя. Во время прогулки Андреас вдруг видит нанизанный на железные прутья ограды труп своего коллеги, выбросившегося из окна офиса. Что послужило причиной самоубийства?..


Возраст: 16+ (зрителям, достигшим 16 лет)
Продолжительность: 01: 31: 25
Качество видео: DVDRip
Перевод: Многоголосый профессиональный
Субтитры: отсутствуют
Видео: DivX, 704х368, ~1369 Kbps
Аудио: AC3, 6 ch, 384 Kbps - русский многоголосый
Аудио: AC3, 6 ch, 384 Kbps - норвежский
Общее
Полное имя : D: Den Brysomme mannen nnmclub.toНеуместный человек (Den Brysomme mannen)DVD6CHП.avi
Формат : AVI
Формат/Информация : Audio Video Interleave
Размер файла : 1, 37 Гбайт
Продолжительность : 1 ч. 31 м.
Общий поток : 2 151 Кбит/сек
Программа кодирования : VirtualDubMod 1.5.10.1 (build 2439/release)
Библиотека кодирования : VirtualDubMod build 2439/release
Видео
Идентификатор : 0
Формат : MPEG-4 Visual
Настройки формата : BVOP1
Параметр BVOP формата : 1
Параметр QPel формата : Нет
Параметр GMC формата : Без точки перехода
Параметр матрицы формата : Default (H.263)
Режим смешивания : Сжатый битовый поток
Идентификатор кодека : DX50
Идентификатор кодека/Подсказка : DivX 5
Продолжительность : 1 ч. 31 м.
Битрейт : 1 369 Кбит/сек
Номинальный битрейт : 6 951 Кбит/сек
Ширина : 704 пикселя
Высота : 368 пикселей
Соотношение сторон : 1, 913
Частота кадров : 25, 000 кадров/сек
Цветовое пространство : YUV
Субдискретизация насыщенности : 4: 2: 0
Битовая глубина : 8 бит
Тип развёртки : Прогрессивная
Метод сжатия : С потерями
Бит/(Пиксели*Кадры) : 0.211
Размер потока : 895 Мбайт (64%)
Библиотека кодирования : DivX 5.2.0 (UTC 2004-07-15)
Аудио #1
Идентификатор : 1
Формат : AC-3
Формат/Информация : Audio Coding 3
Коммерческое название : Dolby Digital
Идентификатор кодека : 2000
Продолжительность : 1 ч. 31 м.
Вид битрейта : Постоянный
Битрейт : 384 Кбит/сек
Каналы : 6 каналов
Channel layout : L R C LFE Ls Rs
Частота : 48, 0 КГц
Частота кадров : 31, 250 кадров/сек (1536 SPF)
Метод сжатия : С потерями
Размер потока : 251 Мбайт (18%)
Выравнивание : Разделение по промежуткам
Продолжительность промежутка : 40 мс. (1, 00 видеокадр)
Время предзагрузки промежутка : 500 мс.
Service kind : Complete Main
Аудио #2
Идентификатор : 2
Формат : AC-3
Формат/Информация : Audio Coding 3
Коммерческое название : Dolby Digital
Идентификатор кодека : 2000
Продолжительность : 1 ч. 31 м.
Вид битрейта : Постоянный
Битрейт : 384 Кбит/сек
Каналы : 6 каналов
Channel layout : L R C LFE Ls Rs
Частота : 48, 0 КГц
Частота кадров : 31, 250 кадров/сек (1536 SPF)
Метод сжатия : С потерями
Размер потока : 251 Мбайт (18%)
Выравнивание : Разделение по промежуткам
Продолжительность промежутка : 40 мс. (1, 00 видеокадр)
Время предзагрузки промежутка : 500 мс.
Service kind : Complete Main

Скриншоты для ознакомления




Все одноименные релизы в Клубе
Время раздачи: Круглосуточно (по возможности) до 3 сидеров. Реставрация от: master-13

Другие торренты по теме:

  • Неуместный человек / Den brysomme mannen (2006) DVDRip [H.264] [MVO]

  • Посетители, находящиеся в группе Гости, не могут оставлять комментарии в данной новости.