Подписывайся на наш канал в Telegram https://t.me/torrentok и получи доступ к торрентам без ограничений!

Всеобщий протест / Contestazione generale (1970) DVDRip [H.264] торрент скачать бесплатно

Всеобщий протест / Contestazione generale (1970) DVDRip [H.264]Производство: Италия/Ultra Film
Жанр: Комедия
Режиссер: Луиджи Дзампа
Продюсер: Марио Чекки Гори

Актеры
Витторио Гассман, Нино Манфреди, Альберто Сорди, Энрико Мария Салерно, Мишель Симон, Марина Влади, Милли Витале, Серджо Тофано, Франко Аббьяна, Доротея Асланидис

Описание

Фильм состоит из трёх частей. В первой части - авангардный режиссёр Риккардо устраивает беспорядки на телевидении и в студенческом городке. Во второй - Франко Беретта страдает от деспотизма своего начальника во время поездки в США. В третьей части - священник требует у епископа машину, жену и новую паству.

Релиз от: Охрана (NNMCLUB)
Продолжительность: 01: 37: 33
Качество видео: DVDRip
Перевод: Многоголосый профессиональный, ТРК Петербург 5-й канал
Субтитры: Отсутствуют
Видео: AVC/H.264, 720x544, ~2015 Kbps
Аудио 1: AC3, 2 ch, 192 Kbps, 48.0 kHz – Русский
Аудио 2: AC3, 2 ch, 192 Kbps, 48.0 kHz – Итальянский
Общее
Уникальный идентификатор : 232079757750599717211106720782503795775 (0xAE98EF7C859358A4B53D65F89FD65C3F)
Полное имя : D: DownloadsВсеобщий протест. 1970. NNMCLUB.mkv
Формат : Matroska
Версия формата : Version 4/Version 2
Размер файла : 1, 64 Гбайт
Продолжительность : 1 ч. 37 м.
Общий поток : 2401 Кбит/сек
Дата кодирования : UTC 2020-08-16 11: 47: 41
Программа кодирования : mkvmerge v7.9.0 (\'Birds\') 64bit
Библиотека кодирования : libebml v1.3.1 + libmatroska v1.4.2
Видео
Идентификатор : 1
Формат : AVC
Формат/Информация : Advanced Video Codec
Профиль формата : [email protected]
Настройки формата : CABAC/12 Ref Frames
Параметр CABAC формата : Да
Параметр RefFrames формата : 12 кадров
Идентификатор кодека : V_MPEG4/ISO/AVC
Продолжительность : 1 ч. 37 м.
Битрейт : 2015 Кбит/сек
Ширина : 720 пикселей
Высота : 544 пикселя
Соотношение сторон : 4: 3
Режим частоты кадров : Постоянный
Частота кадров : 25, 000 кадров/сек
Цветовое пространство : YUV
Субдискретизация насыщенности : 4: 2: 0
Битовая глубина : 8 бит
Тип развёртки : Прогрессивная
Бит/(Пиксели*Кадры) : 0.206
Размер потока : 1, 37 Гбайт (84%)
Заголовок : Contestazione generale
Библиотека кодирования : x264 core 146 r2538 121396c
Настройки программы : cabac=1/ref=12/deblock=1: -1: -1/analyse=0x3: 0x113/me=umh/subme=10/psy=1/psy_rd=1.00: 0.10/mixed_ref=1/me_range=32/chroma_me=1/trellis=2/8x8dct=1/cqm=0/deadzone=21, 11/fast_pskip=0/chroma_qp_offset=-3/threads=6/lookahead_threads=1/sliced_threads=0/nr=0/decimate=0/interlaced=0/bluray_compat=0/constrained_intra=0/bframes=9/b_pyramid=2/b_adapt=2/b_bias=0/direct=3/weightb=1/open_gop=0/weightp=2/keyint=250/keyint_min=25/scenecut=40/intra_refresh=0/rc_lookahead=60/rc=2pass/mbtree=1/bitrate=2015/ratetol=1.0/qcomp=0.60/qpmin=0/qpmax=69/qpstep=4/cplxblur=20.0/qblur=0.5/vbv_maxrate=14000/vbv_bufsize=14000/nal_hrd=none/filler=0/ip_ratio=1.40/aq=1: 1.00
Язык : Italian
Default : Да
Forced : Нет
Аудио #1
Идентификатор : 2
Формат : AC-3
Формат/Информация : Audio Coding 3
Идентификатор кодека : A_AC3
Продолжительность : 1 ч. 37 м.
Вид битрейта : Постоянный
Битрейт : 192 Кбит/сек
Каналы : 2 канала
Расположение каналов : Front: L R
Частота : 48, 0 КГц
Частота кадров : 31, 250 кадров/сек (1536 SPF)
Битовая глубина : 16 бит
Метод сжатия : С потерями
Размер потока : 134 Мбайт (8%)
Заголовок : Многоголосый закадровый
Язык : Russian
ServiceKind/String : Complete Main
Default : Да
Forced : Нет
Аудио #2
Идентификатор : 3
Формат : AC-3
Формат/Информация : Audio Coding 3
Идентификатор кодека : A_AC3
Продолжительность : 1 ч. 37 м.
Вид битрейта : Постоянный
Битрейт : 192 Кбит/сек
Каналы : 2 канала
Расположение каналов : Front: L R
Частота : 48, 0 КГц
Частота кадров : 31, 250 кадров/сек (1536 SPF)
Битовая глубина : 16 бит
Метод сжатия : С потерями
Размер потока : 134 Мбайт (8%)
Заголовок : Итальянский
Язык : Italian
ServiceKind/String : Complete Main
Default : Нет
Forced : Нет

Скриншоты для ознакомления




Все одноименные релизы в Клубе
Время раздачи: с 13: 00 до 01: 00 МСК, выходные круглосуточно (до появления первых 3-5 скачавших)

Другие торренты по теме:

  • Всеобщее восстание (Всеобщий протест) / Contestazione generale (1970) DVD5

  • Посетители, находящиеся в группе Гости, не могут оставлять комментарии в данной новости.