Подписывайся на наш канал в Telegram https://t.me/torrentok и получи доступ к торрентам без ограничений!

Псих в маске / Kamen Byoto / Mask Ward (2020) WEB-DLRip [DVO] торрент скачать бесплатно

Псих в маске / Kamen Byoto / Mask Ward (2020) WEB-DLRip [DVO]Производство: Япония, Aeon Entertainment, Fine Entertainment, Hikari TV
Жанр: Триллер
Режиссер: Хисаси Кимура
Продюсер: Икуми Тагути, Kazuaki Arima, Кадзуя Хамана

Актеры
Кэнтаро Сакагути, Мэй Нагано, Рио Утида, Норико Эгути, Рёхэй Отани, Масанобу Такасима, Аки Асакура, Томоми Маруяма, Сё Касамацу, Масару Нагаи

Описание

Молодой врач, тяжело переживающий гибель своей подруги, с подачи брата погибшей, берется подменить его на ночных сменах в реабилитационном центре расположенном в здании бывшей психиатрической больницы. Все пациенты в основном лежачие больные, работа кажется не сложной, но в первую же ночь в больницу проникает вооруженный грабитель, который берет в заложники персонал больницы и всех пациентов. Пытаясь выжить в непростой ситуации, врач случайно обнаруживает, что в стенах больницы скрывают ужасную тайну.

Релиз от: Rip by vitolinform
Продолжительность: 01: 54: 33
Качество видео: WEB-DLRip
Перевод: Двуголосый любительский (RealFake)
Субтитры: Китайские - hardsub (неотключаемые)
Видео: Xvid, 720x384, ~1596 kbps
Аудио: AC3, 2 ch, 224 Кbps | Русский (DVO, RealFake)
Общее
Полное имя : C: Psih.v.maske.2020.WEB-DLRip.avi
Формат : AVI
Формат/Информация : Audio Video Interleave
Размер файла : 1, 46 Гбайт
Продолжительность : 1 ч. 54 м.
Общий поток : 1 830 Кбит/сек
Название фильма : Псих в маске/Kamen Byoto/Mask Ward (2020) WEB-DLRip
Режиссёр : Хисаси Кимура/Hisashi Kimura
Жанр : Триллер
Программа кодирования : VirtualDubMod 1.5.10.2 (build 2542/release)
Формат оригинала/Имя : Художественный фильм
Авторское право : Япония, Aeon Entertainment, Fine Entertainment, Hikari TV
Примечание : Rip by vitolinform
Видео
Идентификатор : 0
Формат : MPEG-4 Visual
Профиль формата : Advanced [email protected]
Настройки формата : BVOP1
Параметр BVOP формата : 1
Параметр QPel формата : Нет
Параметр GMC формата : Без точки перехода
Параметр матрицы формата : Default (MPEG)
Идентификатор кодека : XVID
Идентификатор кодека/Подсказка : XviD
Продолжительность : 1 ч. 54 м.
Битрейт : 1 597 Кбит/сек
Ширина : 720 пикселей
Высота : 384 пикселя
Соотношение сторон : 1, 85: 1
Частота кадров : 23, 976 (24000/1001) кадра/сек
Цветовое пространство : YUV
Субдискретизация насыщенности : 4: 2: 0
Битовая глубина : 8 бит
Тип развёртки : Прогрессивная
Метод сжатия : С потерями
Бит/(Пиксели*Кадры) : 0.241
Размер потока : 1, 28 Гбайт (87%)
Библиотека кодирования : XviD 69
Аудио
Идентификатор : 1
Формат : AC-3
Формат/Информация : Audio Coding 3
Коммерческое название : Dolby Digital
Идентификатор кодека : 2000
Продолжительность : 1 ч. 54 м.
Вид битрейта : Постоянный
Битрейт : 224 Кбит/сек
Каналы : 2 канала
Channel layout : L R
Частота : 48, 0 КГц
Частота кадров : 31, 250 кадров/сек (1536 SPF)
Метод сжатия : С потерями
Размер потока : 184 Мбайт (12%)
Выравнивание : Разделение по промежуткам
Продолжительность промежутка : 42 мс. (1, 00 видеокадр)
Время предзагрузки промежутка : 500 мс.
Заголовок : Russian (DVO, RealFake)
Service kind : Complete Main

Другие торренты по теме:

  • Мой парень – псих / Silver Linings Playbook (2012) BDRip [H.264 / 1080p] скачать через торрент бесплатно
  • Дед Маздай | Псих [Пенталогия] (2017) [FB2, EPUB]
  • Иван Булавин | S-T-I-K-S Псих (2019) [FB2]

  • Посетители, находящиеся в группе Гости, не могут оставлять комментарии в данной новости.