Подписывайся на наш канал в Telegram https://t.me/torrentok и получи доступ к торрентам без ограничений!

Алиенист / The Alienist (2020) WEB-DLRip (сезон 2, серии 1-8 из 8) LostFilm торрент скачать бесплатно

Алиенист / The Alienist (2020) WEB-DLRip (сезон 2, серии 1-8 из 8) LostFilmПроизводство: США
Жанр: драма, криминал, детектив
Режиссер: Якоб Вербрюгген, Пако Кабесас, Джеймс Хоуз

Актеры
Даниэль Брюль, Люк Эванс, Брайан Джерати, Роберт Уиздом, Дуглас Смит, Мэттью Шир, К’Орианка Килчер, Мэтт Линтц, Дакота Фаннинг, Дэвид Уилмот и др.

Описание

В конце XIX века, в 1896 году, Нью-Йорк потрясает серия жестоких убийств: в городских трущобах убивают детей, с каждым разом все более и более изощренно — будто исполняется какой-то кровавый ритуал. Расследование ведет яркая команда: будущий президент, а пока комиссар полиции Теодор Рузвельт, выдающийся психолог-алиенист (изучает умственные патологии) Ласло Крайцлер и репортер уголовной хроники Джон Скайлер Мур.

Продолжительность: ~00: 50: 00 серия
Качество видео: WEB-DLRip
Перевод: Многоголосый, профессиональный -LostFilm
Видео: XviD, 720x352, ~1507 kbps
Аудио 1: MP3, 2 ch, 128 kbps — русский
Аудио 2: MP3, 2 ch, 128 kbps — английский
Общее
Полное имя : D: Алиенист (сезон любимого сериала 2) The Alienist (2020) WEB-DLRip - LostFilmThe.Alienist.S02E02.WEB-DLRip.Rus.Eng.DV.LostFilm.avi
Формат : AVI
Формат/Информация : Audio Video Interleave
Размер файла : 632 Мбайт
Продолжительность : 49 м. 45 с.
Общий поток : 1 777 Кбит/сек
Название фильма : The.Alienist.S02E02.WEB-DLRip.Rus.Eng.DV.LostFilm/NNM-Club
Программа кодирования : VirtualDubModRus 1.5.10.2 (build 2542/release)
Библиотека кодирования : VirtualDubMod build 2542/release
Видео
Идентификатор : 0
Формат : MPEG-4 Visual
Профиль формата : Advanced [email protected]
Настройки формата : BVOP2
Параметр BVOP формата : 2
Параметр QPel формата : Нет
Параметр GMC формата : Без точки перехода
Параметр матрицы формата : Default (H.263)
Идентификатор кодека : XVID
Идентификатор кодека/Подсказка : XviD
Продолжительность : 49 м. 45 с.
Битрейт : 1 507 Кбит/сек
Ширина : 720 пикселей
Высота : 352 пикселя
Соотношение сторон : 2, 045
Частота кадров : 23, 976 (24000/1001) кадра/сек
Цветовое пространство : YUV
Субдискретизация насыщенности : 4: 2: 0
Битовая глубина : 8 бит
Тип развёртки : Прогрессивная
Метод сжатия : С потерями
Бит/(Пиксели*Кадры) : 0.248
Размер потока : 536 Мбайт (85%)
Заголовок : Rip from DriverV for NNM-Club
Библиотека кодирования : XviD 64
Аудио #1
Идентификатор : 1
Формат : MPEG Audio
Версия формата : Version 1
Профиль формата : Layer 3
Настройки формата : Joint stereo/MS Stereo
Идентификатор кодека : 55
Идентификатор кодека/Подсказка : MP3
Продолжительность : 49 м. 45 с.
Вид битрейта : Постоянный
Битрейт : 128 Кбит/сек
Каналы : 2 канала
Частота : 48, 0 КГц
Метод сжатия : С потерями
Размер потока : 45, 5 Мбайт (7%)
Выравнивание : Соединение по промежуткам
Продолжительность промежутка : 42 мс. (1, 00 видеокадр)
Время предзагрузки промежутка : 504 мс.
Аудио #2
Идентификатор : 2
Формат : MPEG Audio
Версия формата : Version 1
Профиль формата : Layer 3
Настройки формата : Joint stereo/MS Stereo
Идентификатор кодека : 55
Идентификатор кодека/Подсказка : MP3
Продолжительность : 49 м. 45 с.
Вид битрейта : Постоянный
Битрейт : 128 Кбит/сек
Каналы : 2 канала
Частота : 48, 0 КГц
Метод сжатия : С потерями
Размер потока : 45, 5 Мбайт (7%)
Выравнивание : Соединение по промежуткам
Продолжительность промежутка : 42 мс. (1, 00 видеокадр)
Время предзагрузки промежутка : 504 мс.

Другие торренты по теме:

  • Алиенист / The Alienist (2018) WEB-DLRip [H.264 / 720p-LQ] (сезон 1, серии 1 из 10) Lostfilm (обновляемая) [AD]
  • Алиенист / The Alienist (2018) WEB-DLRip [H.264 / 1080p-LQ] (сезон 1, серии 1 из 10) Lostfilm (обновляемая) [AD]
  • Алиенист / The Alienist (2018) WEB-DLRip (сезон 1, серии 1 из 10) LostFilm (обновляемая)
  • Алиенист / The Alienist (2018) WEB-DL [H.264 / 1080-LQ] (сезон 1, серии 1-2 из 8) OMSKBIRD (обновляемая) [AD]
  • Алиенист / The Alienist (2018) WEBRip [H.264 / 1080p-LQ] (сезон 1, серии 1-3 из 10) LostFilm (обновляемая)
  • Алиенист / The Alienist (2018) WEB-DL [H.264 / 720p-LQ] (сезон 1, серии 1-3 из 10) AMS (обновляемая) [AD]
  • Алиенист / The Alienist (2018) WEB-DL [H.264 / 1080p-LQ] (сезон 1, серии 1-10 из 10) TVShows
  • Алиенист / The Alienist (2020) WEBRip [H.264 / 720p-LQ] (сезон 2, серии 1-4 из 8) LakeFilms (обновляемая) [AD]

  • Посетители, находящиеся в группе Гости, не могут оставлять комментарии в данной новости.