Подписывайся на наш канал в Telegram https://t.me/torrentok и получи доступ к торрентам без ограничений!

Момент истины / Last Moment of Clarity (2020) BDRemux [H.264 / 1080p] [VO] торрент скачать бесплатно

Момент истины / Last Moment of Clarity (2020) BDRemux [H.264 / 1080p] [VO]Производство: США/Metalwork Pictures
Жанр: Триллер
Режиссер: Colin Krisel, James Krisel

Актеры
Зак Эйвери, Брайан Кокс, Удо Кир, Самара Уивинг, Карл Эдрард, Николь Ансари-Кокс, Алекс Фернандес

Описание

Сэм потерял девушку при трагических обстоятельствах. Он уже четыре года пытается найти виновных в её гибели, пока однажды в кино не замечает актрису, похожую на любимую.


Рейтинг MPAA: R (лицам до 17 лет обязательно присутствие взрослого)
Дата мировой премьеры: 19 мая 2020
Дата российской премьеры: Неизвестна
Продолжительность: 01: 30: 32
Качество видео: BDRemux
Перевод: Одноголосый любительский
Субтитры: Русские, Английские
Видео: AVC/H.264, 1920x1080, ~30, 5 Mbps
Аудио 1: AC3, 6 ch, 448 Kbps - Русский (VO, Zamez)
Аудио 2: DTS-HD MA, 6 ch, 3476 Kbps - Английский
Общее
Уникальный идентификатор : 259978875230493350119281477550094993839 (0xC3961C2DA486A4AF2D8549C494E4C9AF)
Полное имя : C: Last.Moment.of.Clarity.2020.BDRemux.1080p.mkv
Формат : Matroska
Версия формата : Version 4
Размер файла : 21, 7 Гбайт
Продолжительность : 1 ч. 30 м.
Режим общего битрейта : Переменный
Общий поток : 34, 4 Мбит/сек
Дата кодирования : UTC 2020-08-18 10: 34: 50
Программа кодирования : mkvmerge v49.0.0 (\'Sick Of Losing Soulmates\') 64-bit
Библиотека кодирования : libebml v1.4.0 + libmatroska v1.6.1
Видео
Идентификатор : 1
Формат : AVC
Формат/Информация : Advanced Video Codec
Профиль формата : [email protected]
Настройки формата : CABAC/4 Ref Frames
Параметр CABAC формата : Да
Параметр RefFrames формата : 4 кадра
Параметр GOP формата : M=3, N=24
Идентификатор кодека : V_MPEG4/ISO/AVC
Продолжительность : 1 ч. 30 м.
Вид битрейта : Переменный
Битрейт : 30, 5 Мбит/сек
Максимальный битрейт : 35, 0 Мбит/сек
Ширина : 1 920 пикселей
Высота : 1 080 пикселей
Соотношение сторон : 16: 9
Режим частоты кадров : Постоянный
Частота кадров : 23, 976 (24000/1001) кадра/сек
Стандарт вещания : NTSC
Цветовое пространство : YUV
Субдискретизация насыщенности : 4: 2: 0
Битовая глубина : 8 бит
Тип развёртки : Прогрессивная
Бит/(Пиксели*Кадры) : 0.613
Размер потока : 19, 3 Гбайт (89%)
Default : Нет
Forced : Нет
Цветовой диапазон : Limited
Основные цвета : BT.709
Характеристики трансфера : BT.709
Коэффициенты матрицы : BT.709
Аудио #1
Идентификатор : 2
Формат : AC-3
Формат/Информация : Audio Coding 3
Коммерческое название : Dolby Digital
Идентификатор кодека : A_AC3
Продолжительность : 1 ч. 30 м.
Вид битрейта : Постоянный
Битрейт : 448 Кбит/сек
Каналы : 6 каналов
Channel layout : L R C LFE Ls Rs
Частота : 48, 0 КГц
Частота кадров : 31, 250 кадров/сек (1536 SPF)
Метод сжатия : С потерями
Размер потока : 289 Мбайт (1%)
Заголовок : VO | zamez
Язык : Russian
Service kind : Complete Main
Default : Да
Forced : Нет
Аудио #2
Идентификатор : 3
Формат : DTS XLL
Формат/Информация : Digital Theater Systems
Коммерческое название : DTS-HD Master Audio
Идентификатор кодека : A_DTS
Продолжительность : 1 ч. 30 м.
Вид битрейта : Переменный
Битрейт : 3 476 Кбит/сек
Каналы : 6 каналов
Channel layout : C L R Ls Rs LFE
Частота : 48, 0 КГц
Частота кадров : 93, 750 кадра/сек (512 SPF)
Битовая глубина : 24 бит
Метод сжатия : Без потерь
Размер потока : 2, 20 Гбайт (10%)
Язык : English
Default : Нет
Forced : Нет
Текст #1
Идентификатор : 4
Формат : UTF-8
Идентификатор кодека : S_TEXT/UTF8
Идентификатор кодека/Информация : UTF-8 Plain Text
Продолжительность : 1 ч. 22 м.
Битрейт : 64 бит/сек
Count of elements : 784
Размер потока : 38, 7 Кбайт (0%)
Язык : Russian
Default : Нет
Forced : Нет
Текст #2
Идентификатор : 5
Формат : UTF-8
Идентификатор кодека : S_TEXT/UTF8
Идентификатор кодека/Информация : UTF-8 Plain Text
Продолжительность : 1 ч. 26 м.
Битрейт : 36 бит/сек
Count of elements : 914
Размер потока : 22, 8 Кбайт (0%)
Язык : English
Default : Нет
Forced : Нет
Меню
00: 00: 00.000 : en: Chapter 01
00: 12: 12.815 : en: Chapter 02
00: 24: 43.773 : en: Chapter 03
00: 38: 32.351 : en: Chapter 04
00: 52: 28.603 : en: Chapter 05
01: 04: 28.155 : en: Chapter 06
01: 17: 29.436 : en: Chapter 07
01: 26: 32.478 : en: Chapter 08

Скриншоты для ознакомления



Все одноименные релизы в Клубе
Время раздачи: 24/7 (до появления первых 3-5 скачавших)

Другие торренты по теме:

  • Момент истины (103 выпуска) (2012 - 2014) SATRip [обновляемая]
  • Момент истины (2015) SATRip (10 выпусков) [обновляемая] скачать через торрент бесплатно
  • Момент истины (2016) SATRip (выпуск 1 из ) [обновляемая]
  • Момент истины. (06.06.2016) SATRip
  • Момент истины (2016) SATRip (выпуски 1-20 из 46) [обновляемая]
  • Момент истины (2012 - 2014) SATRip [обновляемая]
  • Сайен Бейлок | Момент истины. Почему мы ошибаемся, когда все поставлено на карту, и что с этим делать (2016) [MOBI, PDF]
  • Death to Spies: Moment of Truth / Смерть шпионам: Момент истины (2009) [Ru / En] (1.0) License GOG

  • Посетители, находящиеся в группе Гости, не могут оставлять комментарии в данной новости.