Подписывайся на наш канал в Telegram https://t.me/torrentok и получи доступ к торрентам без ограничений!

Сердце дракона: Возмездие / Dragonheart Vengeance (2020) HDRip [MVO] торрент скачать бесплатно

Сердце дракона: Возмездие / Dragonheart Vengeance (2020) HDRip [MVO]Производство: США/De Laurentiis, Raffaella De Laurentiis Productions, Universal 1440 Entertainment
Жанр: фэнтези
Режиссер: Иван Сильвестрини

Актеры
Джозеф Миллсон, Джек Кэйн, Arturo Muselli, Каролина Карлссон, Там Уильямс, Ричард Эштон, Росс О’Хеннесси, Fabienne Piolini-Castle, Хелена Бонем Картер, Иоаким Чобану

Описание

После того, как его семья была жестоко убита рейдерами, молодой фермер Лукас отправляется в эпическое путешествие мести. С помощью величественного дракона и наемника, Лукас и его новые друзья вскоре узнают больше о себе и становятся ближе к цели.

Рейтинг MPAA: PG-13 (детям до 13 лет просмотр нежелателен)
Дата мировой премьеры: 4 февраля 2020
Продолжительность: 01: 36: 53
Качество видео: HDRip
Перевод: Многоголосый профессиональный (ТВ-3)
Субтитры: Отсутствуют
Видео: Xvid, 720x400, ~1560 Kbps
Аудио 1: AC3, 2 ch, 192 Kbps - Русский (MVO)
Аудио 2: AC3, 6 ch, 384 Kbps - Английский
General
Complete name : E: ФильмыСердце дракона. Возмездие.avi
Format : AVI
Format/Info : Audio Video Interleave
File size : 1.46 GiB
Duration : 1 h 36 min
Overall bit rate : 2 150 kb/s
Movie name : Сердце дракона: Возмездие/Dragonheart Vengeance (2020)
Writing application : VirtualDubMod 1.5.10.2 (build 2540/release)
Writing library : VirtualDubMod build 2540/release
Copyright : miha2154
Video
ID : 0
Format : MPEG-4 Visual
Format profile : Advanced [email protected]
Format settings : BVOP1/Custom Matrix
Format settings, BVOP : 1
Format settings, QPel : No
Format settings, GMC : No warppoints
Format settings, Matrix : Custom
Codec ID : XVID
Codec ID/Hint : XviD
Duration : 1 h 36 min
Bit rate : 1 560 kb/s
Width : 720 pixels
Height : 400 pixels
Display aspect ratio : 16: 9
Frame rate : 23.976 (24000/1001) FPS
Color space : YUV
Chroma subsampling : 4: 2: 0
Bit depth : 8 bits
Scan type : Progressive
Compression mode : Lossy
Bits/(Pixel*Frame) : 0.226
Stream size : 1.06 GiB (73%)
Writing library : XviD 65
Audio #1
ID : 1
Format : AC-3
Format/Info : Audio Coding 3
Commercial name : Dolby Digital
Codec ID : 2000
Duration : 1 h 36 min
Bit rate mode : Constant
Bit rate : 192 kb/s
Channel(s) : 2 channels
Channel layout : L R
Sampling rate : 48.0 kHz
Frame rate : 31.250 FPS (1536 SPF)
Compression mode : Lossy
Stream size : 133 MiB (9%)
Alignment : Split across interleaves
Interleave, duration : 42 ms (1.00 video frame)
Interleave, preload duratio : 500 ms
Title : Профессиональный (многоголосый, закадровый) ТВ3
Service kind : Complete Main
Audio #2
ID : 2
Format : AC-3
Format/Info : Audio Coding 3
Commercial name : Dolby Digital
Codec ID : 2000
Duration : 1 h 36 min
Bit rate mode : Constant
Bit rate : 384 kb/s
Channel(s) : 6 channels
Channel layout : L R C LFE Ls Rs
Sampling rate : 48.0 kHz
Frame rate : 31.250 FPS (1536 SPF)
Compression mode : Lossy
Stream size : 266 MiB (18%)
Alignment : Split across interleaves
Interleave, duration : 42 ms (1.00 video frame)
Interleave, preload duratio : 500 ms
Title : Английский
Service kind : Complete Main

Скриншоты для ознакомления



Все одноименные релизы в Клубе
Время раздачи: c 7: 00 до 23: 00 МСК (до появления первых 3-5 скачавших)

Другие торренты по теме:

  • Сердце дракона: Возмездие / Dragonheart Vengeance (2020) BDRemux [H.264 / 1080p] [MVO]
  • Сердце дракона: Возмездие / Dragonheart Vengeance (2020) BDRip [H.264 / 1080p-LQ] [MVO]
  • Сердце дракона 3: Проклятье чародея / Dragonheart 3: The Sorcerers Curse (2015) DVDRip [VO] скачать через торрент бесплатно
  • Сердце дракона 3: Проклятье чародея / Dragonheart 3: The Sorcerers Curse (2015) WEB-DL [720p] [VO] скачать через торрент бесплатно
  • Сердце дракона 3: Проклятье чародея / Dragonheart 3: The Sorcerers Curse (2015) HDRip
  • Сердце дракона 3: Проклятье чародея / Dragonheart 3: The Sorcerers Curse (2015) BDRip [1080p] [EN / EN, Fr, Sp Sub]
  • Сердце дракона 3: Проклятье чародея / Dragonheart 3: The Sorcerers Curse (2015) BDRip [720p] [EN / EN, Fr, Sp Sub]
  • Сердце дракона 3: Проклятье чародея / Dragonheart 3: The Sorcerers Curse (2015) WEB-DL [720p] ATV скачать через торрент бесплатно

  • Посетители, находящиеся в группе Гости, не могут оставлять комментарии в данной новости.