Подписывайся на наш канал в Telegram https://t.me/torrentok и получи доступ к торрентам без ограничений!

Бей и беги / Hit and Run (2009) WEB-DL [H.264 / 1080p] торрент скачать бесплатно

Бей и беги / Hit and Run (2009) WEB-DL [H.264 / 1080p]Производство: США/Ithaka Entertainment, Maverick Films, Metro-Goldwyn-Mayer (MGM), Thats Hollywood Inc.
Жанр: Ужасы, триллер, криминал
Режиссер: Эдна МакКэллион

Актеры
Лаура Брекенридж, Кевин Корригэн, Кристофер Шанд, Джо Хансард, Ларри Картер, Мэри Лечтер, Кара Куик, Майкл Коэн, Меган Андерсон, Майкл Гелл, Нитин Адсул, Эрик Цуккерман, Лэнс Льюмэн, Ребекка Гебхард

Описание

Дорога домой после вечеринки превращается в кошмар для студентки Мэри Мэрдок, когда она наезжает на что то и уезжает дальше. Дома она приходит в неописуемый ужас, когда находит тело мертвого мужчины на бампере своего джипа. Не растерявшись, она решает закопать его в лесу и замести следы. Но, когда ее жертва выползает из могилы и начинает охотиться за ней, Мэри осознает, что каждое происшествие имеет свои последствия.


Возраст: 18+ (зрителям, достигшим 18 лет. запрещено для детей)
Рейтинг MPAA: R (лицам до 17 лет обязательно присутствие взрослого)
Продолжительность: 01: 23: 55
Качество видео: WEB-DL
Перевод: Профессиональный двухголосый
Субтитры: Русские, английские
Видео: AVC/H.264, 1920x816, ~10000 Kbps
Аудио 1: AC3, 6 ch, 448 Kbps - Русский (DVO, R5)
Аудио 2: Е-AC3, 6 ch, 640 Kbps - АнглийскийGeneral
Unique ID : 238482249586099601897804672792366791312 (0xB36A02B49A25E63D9A596485EB75BA90)
Complete name : Hit.and.Run.2009.WEB-DL.1080p.mkv
Format : Matroska
Format version : Version 4/Version 2
File size : 6.38 GiB
Duration : 1 h 23 min
Overall bit rate : 10.9 Mb/s
Encoded date : UTC 2020-06-14 12: 07: 19
Writing application : mkvmerge v7.8.0 (\'River Man\') 32bit built on Apr 3 2015 12: 11: 22
Writing library : libebml v1.3.1 + libmatroska v1.4.2
Video
ID : 1
Format : AVC
Format/Info : Advanced Video Codec
Format profile : [email protected]
Format settings, CABAC : Yes
Format settings, RefFrames : 4 frames
Format settings, GOP : M=4, N=48
Codec ID : V_MPEG4/ISO/AVC
Duration : 1 h 23 min
Bit rate mode : Constant
Bit rate : 10 000 kb/s
Width : 1 920 pixels
Height : 816 pixels
Display aspect ratio : 2.35: 1
Frame rate mode : Constant
Frame rate : 23.976 (24000/1001) FPS
Color space : YUV
Chroma subsampling : 4: 2: 0
Bit depth : 8 bits
Scan type : Progressive
Bits/(Pixel*Frame) : 0.266
Stream size : 5.74 GiB (90%)
Language : English
Default : Yes
Forced : No
Color range : Limited
Color primaries : BT.709
Transfer characteristics : BT.709
Matrix coefficients : BT.709
Audio #1
ID : 2
Format : AC-3
Format/Info : Audio Coding 3
Format settings, Endianness : Big
Codec ID : A_AC3
Duration : 1 h 23 min
Bit rate mode : Constant
Bit rate : 448 kb/s
Channel(s) : 6 channels
Channel positions : Front: L C R, Side: L R, LFE
Sampling rate : 48.0 kHz
Frame rate : 31.250 FPS (1536 SPF)
Bit depth : 16 bits
Compression mode : Lossy
Stream size : 269 MiB (4%)
Title : DVO (R5)
Language : Russian
Service kind : Complete Main
Default : Yes
Forced : No
Audio #2
ID : 3
Format : E-AC-3
Format/Info : Enhanced Audio Coding 3
Format settings, Endianness : Big
Codec ID : A_EAC3
Duration : 1 h 23 min
Bit rate mode : Constant
Bit rate : 640 kb/s
Channel(s) : 6 channels
Channel positions : Front: L C R, Side: L R, LFE
Sampling rate : 48.0 kHz
Frame rate : 187.500 FPS (256 SPF)
Compression mode : Lossy
Stream size : 384 MiB (6%)
Title : Original
Language : English
Service kind : Complete Main
Default : No
Forced : No
Text #1
ID : 4
Format : UTF-8
Codec ID : S_TEXT/UTF8
Codec ID/Info : UTF-8 Plain Text
Duration : 1 h 18 min
Bit rate : 37 b/s
Count of elements : 426
Stream size : 21.3 KiB (0%)
Title : Полные
Language : Russian
Default : No
Forced : No
Text #2
ID : 5
Format : UTF-8
Codec ID : S_TEXT/UTF8
Codec ID/Info : UTF-8 Plain Text
Duration : 1 h 23 min
Bit rate : 33 b/s
Count of elements : 745
Stream size : 20.2 KiB (0%)
Title : Full
Language : English
Default : No
Forced : No
Text #3
ID : 6
Format : UTF-8
Codec ID : S_TEXT/UTF8
Codec ID/Info : UTF-8 Plain Text
Duration : 1 h 23 min
Bit rate : 33 b/s
Count of elements : 745
Stream size : 20.2 KiB (0%)
Title : SDH
Language : English
Default : No
Forced : No

Скриншоты для ознакомления



Все одноименные релизы в Клубе
Время раздачи: 24/7 (мультитрекерная раздача)

Другие торренты по теме:

  • Беги, Ронни, беги / Run Ronnie Run (2002) WEB-DL [H.264 / 720p-LQ] скачать через торрент бесплатно
  • Беги! (2016) WEB-DL [H.264 / 1080p-LQ] (серии 1-4 из 4)
  • Беги! (2016) WEB-DL [H.264 / 720p-LQ] (серии 1-4 из 4)
  • Беги, не оглядывайся! (2017) WEB-DL [H.264 / 1080p-LQ] (серии 1-4 из 4)
  • Беги в этой гонке / Run the Race (2018) WEB-DL [1080p] ATV (MVO)
  • Беги в этой гонке / Run the Race (2018) WEB-DL [H.264 / 1080p-LQ] [MVO]

  • Посетители, находящиеся в группе Гости, не могут оставлять комментарии в данной новости.