Подписывайся на наш канал в Telegram https://t.me/torrentok и получи доступ к торрентам без ограничений!

Страх.сом / Feardotcom (2002) WEB-DL [H.264 / 1080p] торрент скачать бесплатно

Страх.сом / Feardotcom (2002) WEB-DL [H.264 / 1080p]Производство: Великобритания, Германия, Люксембург/MDP Worldwide, ApolloMedia Distribution, Fear.Com Productions Ltd
Жанр: ужасы, триллер, криминал
Режиссер: Уильям Мэлоун
Продюсер: Лимор Дайамант, Моше Дайамант, Йорам Барзилай

Актеры
Стивен Дорфф, Наташа МакЭлхоун, Стивен Ри, Удо Кир, Амелия Кёртис, Джеффри Комбс, Найджел Терри, Гезина Кукровски, Майкл Саразин, Яна Гюттгеманнс

Описание

Четыре тела обнаружены среди индустриального распада и городской грязи Нью-Йорка. Команда молодого детектива Майка Рейлли с честолюбивым исследователем из Министерства здравоохранения Терри Хьюстон пытаются раскрыть причину этих необъяснимых смертельных случаев.
Единственный фактор, объединяющий жертв, каждый умер точно через 48 часов после логина на Feardot.com. Они наказывались за их любопытство? Чтобы расследовать это дело Майк входит в систему, и часы начинают обратный отсчет - теперь у него есть только 48 часов...


Возраст: 18+ (зрителям, достигшим 18 лет. запрещено для детей)
Рейтинг MPAA: R (лицам до 17 лет обязательно присутствие взрослого)
Релиз от: winchester00100010
Продолжительность: 01: 41: 22
Качество видео: WEB-DL
Перевод: Дублированный
Субтитры: отсутствуют
Видео: AVC/H.264, 1920х800 (2, 40: 1), ~7533 kbps
Аудио 1: AC3, 2 ch, 192 kbps - русский, дублированный
Аудио 2: AC3, 6 ch, 384 kbps - английский
Общее
Уникальный идентификатор : 203537740420679004939499778022024594183 (0x991FF1627A74666C9D772E82AA9EC307)
Полное имя : D: Мои раздачи и рипыСтрах.ком.Feardotcom.2002.AMZN.WEB-DL.1080p.mkv
Формат : Matroska
Версия формата : Version 2
Размер файла : 5, 86 Гбайт
Продолжительность : 1 ч. 41 м.
Режим общего битрейта : Переменный
Общий поток : 8 274 Кбит/сек
Дата кодирования : UTC 2020-08-13 21: 15: 22
Программа кодирования : mkvmerge v5.8.0 (\'No Sleep/Pillow\') built on Sep 2 2012 15: 37: 04
Библиотека кодирования : libebml v1.2.3 + libmatroska v1.3.0
Видео
Идентификатор : 1
Формат : AVC
Формат/Информация : Advanced Video Codec
Профиль формата : [email protected]
Настройки формата : CABAC/4 Ref Frames
Параметр CABAC формата : Да
Параметр RefFrames формата : 4 кадра
Идентификатор кодека : V_MPEG4/ISO/AVC
Продолжительность : 1 ч. 41 м.
Вид битрейта : Переменный
Битрейт : 7 533 Кбит/сек
Максимальный битрейт : 15, 0 Мбит/сек
Ширина : 1 920 пикселей
Высота : 800 пикселей
Соотношение сторон : 2, 40: 1
Режим частоты кадров : Постоянный
Частота кадров : 23, 976 (24000/1001) кадра/сек
Цветовое пространство : YUV
Субдискретизация насыщенности : 4: 2: 0
Битовая глубина : 8 бит
Тип развёртки : Прогрессивная
Бит/(Пиксели*Кадры) : 0.205
Размер потока : 5, 33 Гбайт (91%)
Библиотека кодирования : x264 core 148 r2623 d5b2374
Настройки программы : cabac=1/ref=4/deblock=1: -1: -1/analyse=0x3: 0x133/me=umh/subme=9/psy=1/psy_rd=1.00: 0.15/mixed_ref=1/me_range=24/chroma_me=1/trellis=2/8x8dct=1/cqm=0/deadzone=21, 11/fast_pskip=1/chroma_qp_offset=-3/threads=25/lookahead_threads=4/sliced_threads=0/nr=150/decimate=1/interlaced=0/bluray_compat=0/constrained_intra=0/bframes=8/b_pyramid=2/b_adapt=2/b_bias=0/direct=3/weightb=1/open_gop=0/weightp=2/keyint=120/keyint_min=61/scenecut=0/intra_refresh=0/rc_lookahead=120/rc=crf/mbtree=1/crf=18.0/qcomp=0.60/qpmin=0/qpmax=69/qpstep=4/vbv_maxrate=15000/vbv_bufsize=31250/crf_max=0.0/nal_hrd=vbr/filler=0/ip_ratio=1.40/aq=3: 1.00
Default : Да
Forced : Нет
Цветовой диапазон : Limited
Основные цвета : BT.709
Характеристики трансфера : BT.709
Коэффициенты матрицы : BT.709
Duration_Source : General_Duration
Аудио #1
Идентификатор : 2
Формат : AC-3
Формат/Информация : Audio Coding 3
Коммерческое название : Dolby Digital
Идентификатор кодека : A_AC3
Продолжительность : 1 ч. 41 м.
Вид битрейта : Постоянный
Битрейт : 192 Кбит/сек
Каналы : 2 канала
Channel layout : L R
Частота : 48, 0 КГц
Частота кадров : 31, 250 кадров/сек (1536 SPF)
Метод сжатия : С потерями
Задержка видео : -83 мс.
Размер потока : 139 Мбайт (2%)
Заголовок : Дубляж (AC3 2ch 192 kbps)
Язык : Russian
Service kind : Complete Main
Default : Да
Forced : Да
Duration_Source : General_Duration
Аудио #2
Идентификатор : 3
Формат : AC-3
Формат/Информация : Audio Coding 3
Коммерческое название : Dolby Digital
Идентификатор кодека : A_AC3
Продолжительность : 1 ч. 41 м.
Вид битрейта : Постоянный
Битрейт : 384 Кбит/сек
Каналы : 6 каналов
Channel layout : L R C LFE Ls Rs
Частота : 48, 0 КГц
Частота кадров : 31, 250 кадров/сек (1536 SPF)
Метод сжатия : С потерями
Задержка видео : -83 мс.
Размер потока : 278 Мбайт (5%)
Язык : English
Service kind : Complete Main
Default : Нет
Forced : Нет
Duration_Source : General_Duration

Другие торренты по теме:

  • Страх.сом / Feardotcom (2002) WEB-DLRip [H.264]

  • Посетители, находящиеся в группе Гости, не могут оставлять комментарии в данной новости.