Подписывайся на наш канал в Telegram https://t.me/torrentok и получи доступ к торрентам без ограничений!

Чего хочет девушка / What A Girl Wants (2003) WEB-DLRip [H.264 / 720p-LQ] [Open Matte] торрент скачать бесплатно

Чего хочет девушка / What A Girl Wants (2003) WEB-DLRip [H.264 / 720p-LQ] [Open Matte]Производство: США, Великобритания/Warner Bros., Gaylord Films, DiNovi Pictures
Жанр: драма, мелодрама, комедия, семейный
Режиссер: Дэнни Гордон

Актеры
Келли Престон, Солейл МакГи, Колин Фёрт, Айлин Аткинс, Джонатан Прайс, Питер Ривз, Джеймс Грин, Аманда Байнс, Стивен Осборн, Майк Толлер

Описание

Дафна, семнадцатилетняя свободолюбивая девушка, отправляется из Нью-Йорка в Англию на поиски своего отца, которого она никогда не знала. Папочка же оказывается богатым аристократом и известным политиком.
Теперь Дафне предстоит стать своей в великосветском окружении отца, погрузившись с головой в бесконечную череду богемных приемов, показов мод и вечеринок. Но сладкая жизнь омрачается множеством трудностей: Дафне предстоит освоить все тонкости этикета, наладить отношения со сводной сестрой и, самое главное, — остаться верной себе и своим идеалам.
И она блестяще справляется с поставленной целью - с находчивостью и изобретательностью, которым позавидовала бы любая юная леди.


Возраст: 12+ (зрителям, достигшим 12 лет)
Рейтинг MPAA: PG (рекомендуется присутствие родителей)
Продолжительность: 01: 44: 56
Качество видео: WEB-DLRip
Перевод: Многоголосый профессиональный, двухголосый профессиональный
Субтитры: русские, английские
Видео: AVC/H.264, 1280x720, 23.976 fps, ~3863 kbps
Аудио 1: AC3, 6 ch, 384 Kbps - Русский (DVO R5)
Аудио 2: AC3, 2 ch, 160 Kbps - Русский (MVO НТВ+)
Аудио 3: AC3, 2 ch, 128 Kbps - Русский (MVO Россия)
Аудио 4: AC3, 6 ch, 384 Kbps - Английский (DVD)
Аудио 5: AC3, 2 ch, 224 Kbps - Английский (amazon)
General
Unique ID : 95897886308743595584355638228935692102 (0x482542D66FCF2228EC9DA478F142CF46)
Complete name : D: Чего хочет девушка (Open Matte).WEB-DLRip 720p.mkv
Format : Matroska
Format version : Version 4
File size : 3.77 GiB
Duration : 1 h 44 min
Overall bit rate : 5 146 kb/s
Movie name : Чего хочет девушка/What a Girl Wants (2003) (Open Matte) - #LORDKILL#
Encoded date : UTC 2020-08-15 15: 51: 58
Writing application : mkvmerge v32.0.0 (\'Astral Progressions\') 64-bit
Writing library : libebml v1.3.7 + libmatroska v1.5.0
Video
ID : 1
Format : AVC
Format/Info : Advanced Video Codec
Format profile : [email protected]
Format settings : CABAC/9 Ref Frames
Format settings, CABAC : Yes
Format settings, Reference : 9 frames
Codec ID : V_MPEG4/ISO/AVC
Duration : 1 h 44 min
Bit rate : 3 863 kb/s
Width : 1 280 pixels
Height : 720 pixels
Display aspect ratio : 16: 9
Frame rate mode : Constant
Frame rate : 23.976 (24000/1001) FPS
Color space : YUV
Chroma subsampling : 4: 2: 0
Bit depth : 8 bits
Scan type : Progressive
Bits/(Pixel*Frame) : 0.175
Stream size : 2.83 GiB (75%)
Writing library : x264 core 159 r2991 1771b55
Encoding settings : cabac=1/ref=9/deblock=1: -2: -2/analyse=0x3: 0x113/me=umh/subme=10/psy=1/psy_rd=1.00: 0.20/mixed_ref=1/me_range=32/chroma_me=1/trellis=2/8x8dct=1/cqm=0/deadzone=21, 11/fast_pskip=0/chroma_qp_offset=-3/threads=12/lookahead_threads=2/sliced_threads=0/nr=0/decimate=1/interlaced=0/bluray_compat=0/constrained_intra=0/bframes=9/b_pyramid=2/b_adapt=2/b_bias=0/direct=1/weightb=1/open_gop=0/weightp=2/keyint=240/keyint_min=23/scenecut=40/intra_refresh=0/rc=crf/mbtree=0/crf=19.5/qcomp=0.60/qpmin=0/qpmax=69/qpstep=4/ip_ratio=1.40/pb_ratio=1.30/aq=1: 1.00
Default : Yes
Forced : No
Audio #1
ID : 2
Format : AC-3
Format/Info : Audio Coding 3
Commercial name : Dolby Digital
Codec ID : A_AC3
Duration : 1 h 44 min
Bit rate mode : Constant
Bit rate : 384 kb/s
Channel(s) : 6 channels
Channel layout : L R C LFE Ls Rs
Sampling rate : 48.0 kHz
Frame rate : 31.250 FPS (1536 SPF)
Bit depth : 16 bits
Compression mode : Lossy
Stream size : 288 MiB (7%)
Title : DVO (R5)
Language : Russian
Service kind : Complete Main
Default : No
Forced : No
Audio #2
ID : 3
Format : AC-3
Format/Info : Audio Coding 3
Commercial name : Dolby Digital
Codec ID : A_AC3
Duration : 1 h 44 min
Bit rate mode : Constant
Bit rate : 160 kb/s
Channel(s) : 2 channels
Channel layout : L R
Sampling rate : 48.0 kHz
Frame rate : 31.250 FPS (1536 SPF)
Bit depth : 16 bits
Compression mode : Lossy
Stream size : 120 MiB (3%)
Title : MVO (НТВ+)
Language : Russian
Service kind : Complete Main
Default : No
Forced : No
Audio #3
ID : 4
Format : AC-3
Format/Info : Audio Coding 3
Commercial name : Dolby Digital
Codec ID : A_AC3
Duration : 1 h 44 min
Bit rate mode : Constant
Bit rate : 128 kb/s
Channel(s) : 2 channels
Channel layout : L R
Sampling rate : 48.0 kHz
Frame rate : 31.250 FPS (1536 SPF)
Bit depth : 16 bits
Compression mode : Lossy
Stream size : 96.1 MiB (2%)
Title : MVO (Россия)
Language : Russian
Service kind : Complete Main
Default : No
Forced : No
Audio #4
ID : 5
Format : AC-3
Format/Info : Audio Coding 3
Commercial name : Dolby Digital
Codec ID : A_AC3
Duration : 1 h 44 min
Bit rate mode : Constant
Bit rate : 384 kb/s
Channel(s) : 6 channels
Channel layout : L R C LFE Ls Rs
Sampling rate : 48.0 kHz
Frame rate : 31.250 FPS (1536 SPF)
Bit depth : 16 bits
Compression mode : Lossy
Stream size : 288 MiB (7%)
Title : DVD
Language : English
Service kind : Complete Main
Default : No
Forced : No
Audio #5
ID : 6
Format : AC-3
Format/Info : Audio Coding 3
Commercial name : Dolby Digital
Codec ID : A_AC3
Duration : 1 h 44 min
Bit rate mode : Constant
Bit rate : 224 kb/s
Channel(s) : 2 channels
Channel layout : L R
Sampling rate : 48.0 kHz
Frame rate : 31.250 FPS (1536 SPF)
Bit depth : 16 bits
Compression mode : Lossy
Stream size : 168 MiB (4%)
Title : AMZN
Language : English
Service kind : Complete Main
Default : No
Forced : No
Text #1
ID : 7
Format : UTF-8
Codec ID : S_TEXT/UTF8
Codec ID/Info : UTF-8 Plain Text
Duration : 1 h 40 min
Bit rate : 101 b/s
Count of elements : 935
Stream size : 74.6 KiB (0%)
Language : Russian
Default : No
Forced : No
Text #2
ID : 8
Format : UTF-8
Codec ID : S_TEXT/UTF8
Codec ID/Info : UTF-8 Plain Text
Duration : 1 h 44 min
Bit rate : 70 b/s
Count of elements : 1830
Stream size : 53.8 KiB (0%)
Language : English
Default : No
Forced : No
Menu
00: 00: 00.000 : en: Studio Logos
00: 00: 38.000 : en: Opening Credits, Daphne Narrates Her Story; Various Locations
00: 02: 11.000 : en: Libby Tells Daphne about Her Dad; Daphne\'s House
00: 04: 45.000 : en: Daphne Her Mom Work Together; Banquet Hall
00: 08: 47.000 : en: Daphne Feels Lonely Without Her Father; Banquet Hall
00: 10: 17.000 : en: Daphne Leaves to Find Her Father; House Taxi
00: 11: 37.000 : en: Daphne Arrives in London; Great Britain Grand Hotel
00: 14: 34.000 : en: Alistair Henry Discuss Henry\'s Election Speech; Dashwood Mansion
00: 15: 48.000 : en: Daphne Meets Ian; Street
00: 16: 29.000 : en: Daphne Tries to Enter the Dashwood Mansion; Dashwood Mansion
00: 19: 46.000 : en: Daphne Meets Henry; Dashwood Mansion
00: 23: 01.000 : en: Henry Is Shocked to Find He Has a Daughter; Dashwood Mansion
00: 24: 56.000 : en: Henry Talks to Libby about Daphne; Dashwood Mansion
00: 26: 11.000 : en: Henry Believes Daphne Is a Mature Young Lady; Conference Room
00: 27: 39.000 : en: Henry Invites Daphne to the Royal Dress Show; Dashwood Mansion
00: 30: 53.000 : en: Daphne Has a Mishap in the Bathroom; Dashwood Mansion
00: 33: 30.000 : en: Daphne Surprises Everyone; Royal Dress Show
00: 36: 11.000 : en: Daphne Plays With Princess Charlotte\'s Dog; Royal Dress Show
00: 37: 38.000 : en: Henry Talks to Daphne; Dashwood Mansion
00: 40: 57.000 : en: Clarissa Gets Jealous of Daphne; Dashwood Mansion
00: 44: 04.000 : en: Daphne Gets Attention at Lord Orwood\'s Party; Lord Orwood\'s Mansion
00: 47: 12.000 : en: Daphne Dances With Armistead; Lord Orwood\'s Mansion
00: 49: 28.000 : en: Daphne Ian Get the Party Going; Lord Orwood\'s Mansion
00: 52: 40.000 : en: Henry Looks At Daphne\'s Childhood Photos; Dashwood Mansion
00: 54: 21.000 : en: Daphne Apologizes to Henry; Dashwood Mansion
00: 56: 23.000 : en: Daphne Goes Out With Ian; Dashwood Mansion
00: 57: 49.000 : en: Daphne Goes Shopping with Ian; Market
00: 59: 21.000 : en: Daphne Ian Go Boating; Boat
01: 01: 45.000 : en: Henry Worries About Daphne; Dashwood Mansion
01: 03: 10.000 : en: Henry Daphne Address the Media; Henley Regatta
01: 05: 02.000 : en: Daphne Makes Another Splash; Henley Regatta
01: 08: 05.000 : en: Daphne Spends the Day With Henry; Various Locations
01: 11: 57.000 : en: Henry Is on the Verge of Losing His Position; Dashwood Office
01: 12: 47.000 : en: Daphne Undergoes a Transformation for Henry; Dashwood Mansion
01: 16: 45.000 : en: Daphne Goes To the Annual Garden Party; Garden
01: 17: 37.000 : en: Henry Introduces Daphne to Society; Dashwood Mansion
01: 20: 34.000 : en: Henry Libby Dance; Dashwood Mansion
01: 24: 27.000 : en: Daphne Leaves the Party; Dashwood Mansion
01: 26: 27.000 : en: Daphne Tells Henry How She Feels; Dashwood Mansion
01: 28: 23.000 : en: Daphne Misses Henry Ian; Dashwood Mansion
01: 31: 33.000 : en: Henry Speaks at a Press Conference; Hall
01: 35: 03.000 : en: Henry Surprises Daphne; Lawn
01: 39: 49.000 : en: Daphne Lives Happily Ever After; Various Locations
01: 41: 05.000 : en: End Credits

Другие торренты по теме:

  • Чего хочет женщина! (2006) DVDRip
  • Чего хочет Джульетта / Lembarras du choix (2017) HDRip
  • Чего хочет Джульетта / Lembarras du choix (2017) WEB-DL [H.264 / 1080p-LQ]
  • Чего хочет Джульетта / Lembarras du choix (2017) WEB-DLRip [576p] iPad
  • Чего хочет Джульетта / Lembarras du choix (2017) WEB-DL [1080p] ATV

  • Посетители, находящиеся в группе Гости, не могут оставлять комментарии в данной новости.