Подписывайся на наш канал в Telegram https://t.me/torrentok и получи доступ к торрентам без ограничений!

Судья / The Judge (2014) WEBRip [H.264 / 1080p] [Open Matte] [PR] торрент скачать бесплатно

Судья / The Judge (2014) WEBRip [H.264 / 1080p] [Open Matte] [PR]Производство: США/Warner Bros. Pictures, Village Roadshow Pictures, RatPac Dune
Жанр: драма
Режиссер: Дэвид Добкин

Актеры
Роберт Дауни мл., Роберт Дювалл, Вера Фармига, Билли Боб Торнтон, Винсент Д’Онофрио, Джереми Стронг, Дэкс Шепард, Лейтон Мистер, Кен Ховард, Эмма Трэмбле

Описание

Успешный адвокат приезжает в родной город на похороны матери и узнаёт, что его отца, городского судью, подозревают в убийстве. Мужчина решает задержаться, чтобы выяснить правду, и постепенно лучше узнаёт родственников, с которыми давно не общался.

Возраст: 18+ (зрителям, достигшим 18 лет. запрещено для детей)
Рейтинг MPAA: R (лицам до 17 лет обязательно присутствие взрослого)
Продолжительность: 02: 21: 30
Качество видео: WEBRip
Перевод: Дублированный
Субтитры: русские (forced, full), английские
Видео: AVC/H.264, 1920x1080, 23.976 fps, ~5120 kbps
Аудио 1: AC3, 6 ch, 448 kbps - Русский (DUB)
Аудио 2: AC3, 6 ch, 448 kbps - Английский
General
Unique ID : 247915582191816307666927614870992115195 (0xBA82CDE9613317BE8EF6E318B5E2D5FB)
Complete name : F: The Judge (2014) Open Matte.mkv
Format : Matroska
Format version : Version 4
File size : 5.73 GiB
Duration : 2 h 21 min
Overall bit rate : 5 794 kb/s
Encoded date : UTC 2019-09-15 14: 55: 12
Writing application : mkvmerge v8.3.0 (\'Over the Horizon\') 32bit
Writing library : libebml v1.3.1 + libmatroska v1.4.2
Video
ID : 1
Format : AVC
Format/Info : Advanced Video Codec
Format profile : [email protected]
Format settings : CABAC/4 Ref Frames
Format settings, CABAC : Yes
Format settings, Reference : 4 frames
Codec ID : V_MPEG4/ISO/AVC
Duration : 2 h 21 min
Bit rate : 5 120 kb/s
Width : 1 920 pixels
Height : 1 080 pixels
Display aspect ratio : 16: 9
Frame rate mode : Constant
Frame rate : 23.976 (24000/1001) FPS
Color space : YUV
Chroma subsampling : 4: 2: 0
Bit depth : 8 bits
Scan type : Progressive
Bits/(Pixel*Frame) : 0.103
Stream size : 4.84 GiB (84%)
Writing library : x264 core 142
Encoding settings : cabac=1/ref=3/deblock=1: 0: 0/analyse=0x3: 0x113/me=hex/subme=7/psy=1/psy_rd=1.00: 0.00/mixed_ref=1/me_range=16/chroma_me=1/trellis=1/8x8dct=1/cqm=0/deadzone=21, 11/fast_pskip=1/chroma_qp_offset=-2/threads=84/lookahead_threads=8/sliced_threads=0/nr=0/decimate=1/interlaced=0/bluray_compat=0/constrained_intra=0/bframes=6/b_pyramid=2/b_adapt=1/b_bias=0/direct=1/weightb=1/open_gop=0/weightp=2/keyint=50/keyint_min=26/scenecut=0/intra_refresh=0/rc_lookahead=40/rc=2pass/mbtree=1/bitrate=5120/ratetol=1.0/qcomp=0.60/qpmin=0/qpmax=69/qpstep=4/cplxblur=20.0/qblur=0.5/vbv_maxrate=7680/vbv_bufsize=20480/nal_hrd=none/filler=0/ip_ratio=1.40/aq=1: 1.00
Default : Yes
Forced : No
Audio #1
ID : 2
Format : AC-3
Format/Info : Audio Coding 3
Commercial name : Dolby Digital
Codec ID : A_AC3
Duration : 2 h 21 min
Bit rate mode : Constant
Bit rate : 448 kb/s
Channel(s) : 6 channels
Channel layout : L R C LFE Ls Rs
Sampling rate : 48.0 kHz
Frame rate : 31.250 FPS (1536 SPF)
Bit depth : 16 bits
Compression mode : Lossy
Stream size : 453 MiB (8%)
Language : Russian
Service kind : Complete Main
Default : Yes
Forced : No
Audio #2
ID : 3
Format : AC-3
Format/Info : Audio Coding 3
Commercial name : Dolby Digital
Codec ID : A_AC3
Duration : 2 h 21 min
Bit rate mode : Constant
Bit rate : 448 kb/s
Channel(s) : 6 channels
Channel layout : L R C LFE Ls Rs
Sampling rate : 48.0 kHz
Frame rate : 31.250 FPS (1536 SPF)
Bit depth : 16 bits
Compression mode : Lossy
Stream size : 453 MiB (8%)
Language : English
Service kind : Complete Main
Default : No
Forced : No
Text #1
ID : 4
Format : UTF-8
Codec ID : S_TEXT/UTF8
Codec ID/Info : UTF-8 Plain Text
Duration : 2 h 20 min
Bit rate : 1 b/s
Count of elements : 28
Stream size : 1.48 KiB (0%)
Title : forc
Language : Russian
Default : Yes
Forced : No
Text #2
ID : 5
Format : UTF-8
Codec ID : S_TEXT/UTF8
Codec ID/Info : UTF-8 Plain Text
Duration : 2 h 14 min
Bit rate : 108 b/s
Count of elements : 1879
Stream size : 107 KiB (0%)
Title : full
Language : Russian
Default : No
Forced : No
Text #3
ID : 6
Format : UTF-8
Codec ID : S_TEXT/UTF8
Codec ID/Info : UTF-8 Plain Text
Duration : 2 h 19 min
Bit rate : 68 b/s
Count of elements : 2005
Stream size : 70.1 KiB (0%)
Language : English
Default : No
Forced : No

Другие торренты по теме:

  • Судья Дредд / Judge Dredd (1995) BDRip
  • Плохая судья / Bad Judge (2014) WEB-DLRip (Сезон 1, серия 1 из 13) Flux Team (Обновляемая)
  • Судья / The Judge (2014) WEBRip [Звук с TS] скачать через торрент бесплатно
  • Судья / The Judge (2014) WEBRip [Звук с TS] скачать через торрент бесплатно
  • Судья / The Judge (2014) WEBRip [Звук с TS] скачать через торрент бесплатно
  • Судья / The Judge (2014) WEBRip [Звук с TS] скачать через торрент бесплатно
  • Судья / The Judge (2014) WEB-DLRip скачать через торрент бесплатно
  • Судья / The Judge (2014) WEB-DLRip [H.264] скачать через торрент бесплатно

  • Посетители, находящиеся в группе Гости, не могут оставлять комментарии в данной новости.