Подписывайся на наш канал в Telegram https://t.me/torrentok и получи доступ к торрентам без ограничений!

Гарри Поттер и Дары Смерти: Часть I / Harry Potter and the Deathly Hallows: Part 1 (2010) WEB-DLRip [H.264] [Open Matte] торрент скачать бесплатно

Гарри Поттер и Дары Смерти: Часть I / Harry Potter and the Deathly Hallows: Part 1 (2010) WEB-DLRip [H.264] [Open Matte]Производство: Великобритания, США/Warner Bros. Pictures
Жанр: фэнтези, приключения
Режиссер: Дэвид Йейтс

Актеры
Дэниэл Рэдклифф, Эмма Уотсон, Том Фелтон, Руперт Гринт, Бонни Райт, Алан Рикман, Рэйф Файнс, Хелена Бонем Картер, Майкл Гэмбон, Брендан Глисон

Описание

Гарри Поттера ждёт самое страшное испытание в жизни — смертельная схватка с Волан-де-Мортом. Ждать помощи не от кого — Гарри одинок, как никогда… Друзья и враги Гарри предстают в совершенно неожиданном свете. Граница между Добром и Злом становится всё призрачнее…


Возраст: 16+ (зрителям, достигшим 16 лет)
Рейтинг MPAA: PG-13 (детям до 13 лет просмотр нежелателен)
Продолжительность: 02: 26: 13
Качество видео: WEB-DLRip
Перевод: Дублированный
Субтитры: русские, английские
Видео: AVC/H.264, 1024x576, 23.976 fps, ~2000 kbps
Аудио 1: AC3, 6 ch, 384 kbps - Русский (DUB)
Аудио 2: AC3, 6 ch, 448 kbps - Английский
General
Unique ID : 242528672468422782902074213244477492948 (0xB67552C1B0169378B4251FB2D7CDCED4)
Complete name : D: Harry Potter and the Deathly Hallows 1 (2010) Open Matte.mkv
Format : Matroska
Format version : Version 4
File size : 2.89 GiB
Duration : 2 h 26 min
Overall bit rate : 2 834 kb/s
Movie name : Гарри Поттер и Дары смерти: Часть 1/Harry Potter and the Deathly Hallows: Part 1 (2010) (Open Matte) - #LORDKILL#
Encoded date : UTC 2020-08-16 13: 33: 23
Writing application : mkvmerge v8.3.0 (\'Over the Horizon\') 32bit
Writing library : libebml v1.3.1 + libmatroska v1.4.2
Video
ID : 1
Format : AVC
Format/Info : Advanced Video Codec
Format profile : [email protected]
Format settings : CABAC/12 Ref Frames
Format settings, CABAC : Yes
Format settings, Reference : 12 frames
Codec ID : V_MPEG4/ISO/AVC
Duration : 2 h 26 min
Bit rate : 2 000 kb/s
Width : 1 024 pixels
Height : 576 pixels
Display aspect ratio : 16: 9
Frame rate mode : Constant
Frame rate : 23.976 (24000/1001) FPS
Color space : YUV
Chroma subsampling : 4: 2: 0
Bit depth : 8 bits
Scan type : Progressive
Bits/(Pixel*Frame) : 0.141
Stream size : 2.04 GiB (71%)
Writing library : x264 core 148 r2638 7599210
Encoding settings : cabac=1/ref=12/deblock=1: -2: -2/analyse=0x3: 0x113/me=umh/subme=10/psy=1/psy_rd=1.00: 0.20/mixed_ref=1/me_range=32/chroma_me=1/trellis=2/8x8dct=1/cqm=0/deadzone=21, 11/fast_pskip=0/chroma_qp_offset=-3/threads=12/lookahead_threads=2/sliced_threads=0/nr=0/decimate=1/interlaced=0/bluray_compat=0/constrained_intra=0/bframes=8/b_pyramid=2/b_adapt=2/b_bias=0/direct=3/weightb=1/open_gop=0/weightp=2/keyint=240/keyint_min=23/scenecut=40/intra_refresh=0/rc=2pass/mbtree=0/bitrate=2000/ratetol=1.0/qcomp=0.60/qpmin=0/qpmax=69/qpstep=4/cplxblur=20.0/qblur=0.5/ip_ratio=1.40/pb_ratio=1.30/aq=1: 1.00
Default : Yes
Forced : No
Audio #1
ID : 2
Format : AC-3
Format/Info : Audio Coding 3
Commercial name : Dolby Digital
Codec ID : A_AC3
Duration : 2 h 26 min
Bit rate mode : Constant
Bit rate : 384 kb/s
Channel(s) : 6 channels
Channel layout : L R C LFE Ls Rs
Sampling rate : 48.0 kHz
Frame rate : 31.250 FPS (1536 SPF)
Bit depth : 16 bits
Compression mode : Lossy
Stream size : 402 MiB (14%)
Language : Russian
Service kind : Complete Main
Default : Yes
Forced : No
Audio #2
ID : 3
Format : AC-3
Format/Info : Audio Coding 3
Commercial name : Dolby Digital
Codec ID : A_AC3
Duration : 2 h 26 min
Bit rate mode : Constant
Bit rate : 448 kb/s
Channel(s) : 6 channels
Channel layout : L R C LFE Ls Rs
Sampling rate : 48.0 kHz
Frame rate : 31.250 FPS (1536 SPF)
Bit depth : 16 bits
Compression mode : Lossy
Stream size : 468 MiB (16%)
Language : English
Service kind : Complete Main
Default : No
Forced : No
Text #1
ID : 4
Format : UTF-8
Codec ID : S_TEXT/UTF8
Codec ID/Info : UTF-8 Plain Text
Duration : 2 h 11 min
Bit rate : 76 b/s
Count of elements : 1339
Stream size : 73.3 KiB (0%)
Language : Russian
Default : No
Forced : No
Text #2
ID : 5
Format : UTF-8
Codec ID : S_TEXT/UTF8
Codec ID/Info : UTF-8 Plain Text
Duration : 2 h 11 min
Bit rate : 44 b/s
Count of elements : 1278
Stream size : 42.8 KiB (0%)
Language : English
Default : No
Forced : No

Другие торренты по теме:

  • Гарри Поттер и Партия Ленина / Гарри Поттер и Орден Феникса / Harry Potter and the Order of the Phoenix (2009) DVDRip
  • Гарри Поттер и Кубок огня / Harry Potter and the Goblet of Fire (2005) HDRip [H.264] [Ultimate Cut]
  • Гарри Поттер и Орден Феникса / Harry Potter and the Order of the Phoenix (2007) HDRip [H.264] [Ultimate Cut]
  • Джоан Роулинг | Гарри Поттер и Кубок огня [2008] [M4B | AAC] скачать через торрент бесплатно
  • Джоан Роулинг | Гарри Поттер и Дары Смерти [2011] [M4B | AAC] скачать через торрент бесплатно
  • Джоан Роулинг | Гарри Поттер и Принц-полукровка [2011] [M4B | AAC] скачать через торрент бесплатно
  • Джоан Роулинг | Гарри Поттер и Орден Феникса [2008] [M4B | AAC] скачать через торрент бесплатно
  • Джоан Роулинг | Гарри Поттер и узник Азкабана [2006] [M4B | AAC] скачать через торрент бесплатно

  • Посетители, находящиеся в группе Гости, не могут оставлять комментарии в данной новости.