Подписывайся на наш канал в Telegram https://t.me/torrentok и получи доступ к торрентам без ограничений!

Без ума от любви / Mozart and the Whale (2005) WEB-DL [H.264 / 1080p-LQ] торрент скачать бесплатно

Без ума от любви / Mozart and the Whale (2005) WEB-DL [H.264 / 1080p-LQ]Производство: США/Big City Pictures, Equity Pictures Medienfonds GmbH Co. KG II, Millennium Films, Modern Digital, North by Northwest Entertainment, Robert Lawrence Productions, Swingin\' Productions LLC
Жанр: Драма, мелодрама, комедия
Режиссер: Петтер Несс
Продюсер: Джеймс Эйксон, Боаз Дэвидсон, Фрэнк ДеМартини

Актеры
Джош Хартнетт, Рада Митчелл, Гэри Коул, Шейла Келли, Эрика Лирсен, Джон Кэрролл Линч, Нат Муни, Расти Швиммер, Роберт Уиздом, Аллен Евангелиста

Описание

Дональд - добрый и безобидный парень. Природа наделила его ранимой душой и феноменальной способностью ловко обращаться с самыми сложными числами, лишив его в обмен на этот дар умения общаться и выражать свои чувства. Мозг ни секунды не дает Дональду покоя, он попросту не сможет жить без надежных правил и схем, которыми наполнен каждый его день. Но когда судьба сводит его с Изабель со столь же уникальной и сложной душой, перед ним возникает формула, которую он еще никогда не решал - непредсказуемая формула любви, где все волнительно и странно.


Возраст: 16+ (зрителям, достигшим 16 лет)
Рейтинг MPAA: PG-13 (детям до 13 лет просмотр нежелателен)
Релиз от: winchester00100010
Продолжительность: 01: 33: 59
Качество видео: WEB-DL
Перевод: Профессиональный (Многоголосый закадровый) (CP Digital) Лицензия с DVD
Субтитры: отсутствуют
Видео: AVC/H.264, 1916х1076 (16: 9), ~5002 kbps
Аудио: AC3, 6 ch, 448 kbps
Общее
Уникальный идентификатор : 234920408884603849051733586626265845276 (0xB0BC066685865634B03D301963198E1C)
Полное имя : D: Мои раздачи и рипыБез.ума.от.любви.2005.WEB-DL.1080p.mkv
Формат : Matroska
Версия формата : Version 2
Размер файла : 3, 65 Гбайт
Продолжительность : 1 ч. 33 м.
Общий поток : 5 560 Кбит/сек
Дата кодирования : UTC 2020-08-15 18: 29: 31
Программа кодирования : mkvmerge v5.8.0 (\'No Sleep/Pillow\') built on Sep 2 2012 15: 37: 04
Библиотека кодирования : libebml v1.2.3 + libmatroska v1.3.0
Видео
Идентификатор : 1
Формат : AVC
Формат/Информация : Advanced Video Codec
Профиль формата : [email protected]
Настройки формата : CABAC/4 Ref Frames
Параметр CABAC формата : Да
Параметр RefFrames формата : 4 кадра
Идентификатор кодека : V_MPEG4/ISO/AVC
Продолжительность : 1 ч. 33 м.
Битрейт : 5 002 Кбит/сек
Ширина : 1 916 пикселей
Высота : 1 076 пикселей
Соотношение сторон : 16: 9
Режим частоты кадров : Постоянный
Частота кадров : 23, 976 (24000/1001) кадра/сек
Цветовое пространство : YUV
Субдискретизация насыщенности : 4: 2: 0
Битовая глубина : 8 бит
Тип развёртки : Прогрессивная
Бит/(Пиксели*Кадры) : 0.101
Размер потока : 3, 28 Гбайт (90%)
Заголовок : English
Язык : English
Default : Да
Forced : Нет
Цветовой диапазон : Limited
Основные цвета : BT.709
Характеристики трансфера : BT.709
Коэффициенты матрицы : BT.709
Statistics Tags Issue : mkvmerge v30.1.0 (\'Forever And More\') 64-bit 2019-02-06 02: 56: 57/mkvmerge v5.8.0 (\'No Sleep/Pillow\') built on Sep 2 2012 15: 37: 04 2020-08-15 18: 29: 31
FromStats_BitRate : 5110614
FromStats_Duration : 01: 33: 58.967000000
FromStats_FrameCount : 135200
FromStats_StreamSize : 3602323666
Duration_Source : General_Duration
Аудио
Идентификатор : 2
Формат : AC-3
Формат/Информация : Audio Coding 3
Коммерческое название : Dolby Digital
Идентификатор кодека : A_AC3
Продолжительность : 1 ч. 33 м.
Вид битрейта : Постоянный
Битрейт : 448 Кбит/сек
Каналы : 6 каналов
Channel layout : L R C LFE Ls Rs
Частота : 48, 0 КГц
Частота кадров : 31, 250 кадров/сек (1536 SPF)
Метод сжатия : С потерями
Размер потока : 301 Мбайт (8%)
Заголовок : Многоголосый закадровый (CP Digital) Лицензия DVD
Язык : Russian
Service kind : Complete Main
Default : Да
Forced : Да
Statistics Tags Issue : mkvmerge v30.1.0 (\'Forever And More\') 64-bit 2019-02-06 02: 56: 57/mkvmerge v5.8.0 (\'No Sleep/Pillow\') built on Sep 2 2012 15: 37: 04 2020-08-15 18: 29: 31
FromStats_BitRate : 448000
FromStats_Duration : 01: 33: 59.168000000
FromStats_FrameCount : 176224
FromStats_StreamSize : 315793408
Duration_Source : General_Duration

Скриншоты для ознакомления



Все одноименные релизы в Клубе
Время раздачи: с 12: 00 до 00: 00 по МСК (до появления первых 3-5 скачавших), также могу уйти с раздачи на некоторое время в любой момент

Другие торренты по теме:

  • Без ума от любви / Mozart and the Whale (2005) WEB-DLRip [H.264]

  • Посетители, находящиеся в группе Гости, не могут оставлять комментарии в данной новости.