Подписывайся на наш канал в Telegram https://t.me/torrentok и получи доступ к торрентам без ограничений!

Страна Лавкрафта / Lovecraft Country (2020) WEB-DLRip [H.264 / 720p-LQ] (сезон 1, серии 1 из 10) OMSKBIRD (обновляемая) [AD] торрент скачать бесплатно

Страна Лавкрафта / Lovecraft Country (2020) WEB-DLRip [H.264 / 720p-LQ] (сезон 1, серии 1 из 10) OMSKBIRD (обновляемая) [AD]Производство: США/Bad Robot, Monkeypaw Prodctions, Warner Bros. Television
Жанр: Ужасы, фантастика, фэнтези, триллер, драма, детектив
Режиссер: Дэниэл Сакхайм, Ян Деманж, Шерил Дьюнай

Актеры
Джонатан Мэйджерс, Джерни Смоллетт, Кортни Б. Вэнс, Майкл Кеннет Уильямс, Чейз Браун, Онжаню Эллис, Маркус А. Гриффин мл., Эбби Ли, Вунми Моссаку, Джада Харрис и др.

Описание

22-летний ветеран Корейской войны Аттикус вместе с подругой детства и дядей отправляется в путешествие по Штатам на поиски отца. На пути он встретится не только с расистами, но и с настоящими монстрами.


Дата мировой премьеры: 16 августа 2020
Релиз от: OMSKBIRD
Продолжительность: ~01: 08: 00 серия
Качество видео: WEB-DLRip
Перевод: Многоголосый, профессиональный (OMSKBIRD)
Реклама: присутствуют видео, аудио вставки рекламы
Видео: AVC/H.264, 1280x720 (16: 9), ~ 2937 Kbps
Аудио: AC3, 2 ch, 192 Kbps
Общее
Уникальный идентификатор : 190922036639413422788183880977601528324 (0x8FA23F2A666D96A08DB8342B6F740204)
Полное имя : Lovecraft.Country.S01.WEB-DLRip.720p.OmskBirdLovecraft.Country.S01E01.WEB-DLRip.720p.OmskBird.mkv
Формат : Matroska
Версия формата : Version 4
Размер файла : 1, 50 Гбайт
Продолжительность : 1 ч. 8 м.
Общий поток : 3131 Кбит/сек
Дата кодирования : UTC 2020-08-17 20: 47: 23
Программа кодирования : mkvmerge v7.8.0 (\'River Man\') 32bit built on Apr 3 2015 12: 11: 22
Библиотека кодирования : libebml v1.3.1 + libmatroska v1.4.2
Видео
Идентификатор : 1
Формат : AVC
Формат/Информация : Advanced Video Codec
Профиль формата : [email protected]
Настройки формата : CABAC/3 Ref Frames
Параметр CABAC формата : Да
Параметр RefFrames формата : 3 кадра
Идентификатор кодека : V_MPEG4/ISO/AVC
Продолжительность : 1 ч. 8 м.
Битрейт : 2937 Кбит/сек
Ширина : 1280 пикселей
Высота : 720 пикселей
Соотношение сторон : 16: 9
Режим частоты кадров : Постоянный
Частота кадров : 23, 976 (24000/1001) кадра/сек
Стандарт вещания : PAL
Цветовое пространство : YUV
Субдискретизация насыщенности : 4: 2: 0
Битовая глубина : 8 бит
Тип развёртки : Прогрессивная
Бит/(Пиксели*Кадры) : 0.133
Размер потока : 1, 41 Гбайт (94%)
Язык : English
Default : Да
Forced : Нет
Цветовой диапазон : Limited
Основные цвета : BT.709
Характеристики трансфера : BT.709
Коэффициенты матрицы : BT.709
Аудио
Идентификатор : 2
Формат : AC-3
Формат/Информация : Audio Coding 3
Коммерческое название : Dolby Digital
Идентификатор кодека : A_AC3
Продолжительность : 1 ч. 8 м.
Вид битрейта : Постоянный
Битрейт : 192 Кбит/сек
Каналы : 2 канала
ChannelLayout : L R
Частота : 48, 0 КГц
Частота кадров : 31, 250 кадров/сек (1536 SPF)
Метод сжатия : С потерями
Размер потока : 94, 2 Мбайт (6%)
ServiceKind/String : Complete Main
Default : Да
Forced : Нет

Скриншоты для ознакомления



Все одноименные релизы в Клубе
Время раздачи: с 08: 00 до 23: 30 (до появления первых 3-5 скачавших)

Другие торренты по теме:

  • Мэтт Рафф | Страна Лавкрафта (2018) [FB2]
  • Страна Лавкрафта / Lovecraft Country (2020) WEBRip [H.264 / 720p-LQ] (сезон 1, серия 1 из 10) LakeFilms (обновляемая) [AD]
  • Страна Лавкрафта / Lovecraft Country (2020) WEBRip [H.264 / 1080p-LQ] (сезон 1, серия 1 из 10) LakeFilms (обновляемая) [AD]
  • Страна Лавкрафта / Lovecraft Country (2020) WEB-DLRip [H.264 / 1080p-LQ] (сезон 1, серии 1 из 10) OMSKBIRD (обновляемая) [AD]
  • Страна Лавкрафта / Lovecraft Country (2020) WEB-DLRip [H.264 / 1080p-LQ] (сезон 1, серии 1 из 10) ViruseProject (обновляемая) [AD]
  • Страна Лавкрафта / Lovecraft Country (2020) WEB-DLRip (сезон 1, серии 1 из 10) ViruseProject (обновляемая)

  • Посетители, находящиеся в группе Гости, не могут оставлять комментарии в данной новости.