Подписывайся на наш канал в Telegram https://t.me/torrentok и получи доступ к торрентам без ограничений!

21 мост / 21 Bridges (2019) BDRip [H.264 / 1080p] торрент скачать бесплатно

21 мост / 21 Bridges (2019) BDRip [H.264 / 1080p]Производство: США/AGBO, Huayi Brothers, MWM Studios
Жанр: боевик, триллер, драма, криминал
Режиссер: Брайан Кирк

Актеры
Чедвик Боузман, Сиенна Миллер, Тейлор Китч, Дж.К. Симмонс, Стефан Джеймс, Кит Дэвид, Александр Сиддиг, Луис Канселми, Виктория Картахена, Гари Карр

Описание

Он охотится на преступников, которые совершили на Манхэттене дерзкое ограбление, оставив после себя 8 мертвых полицейских. А продажные копы тем временем охотятся на него, пытаясь подставить. Но преступникам не скрыться, так как первый раз в истории Нью-Йорка полиция перекрыла все выходы с острова, в том числе 21 мост.


Возраст: 16+ (зрителям, достигшим 16 лет)
Рейтинг MPAA: R (лицам до 17 лет обязательно присутствие взрослого)
Дата мировой премьеры: 25 сентября 2019
Дата российской премьеры: 5 декабря 2019
Продолжительность: 01: 39: 57
Качество видео: BDRip
Язык озвучки: Русский, английский
Перевод: Дублированный, авторский
Субтитры: Русские (Full), английские (SDH, Full)
Видео: AVC/H.264, 1920x804, ~14.5 mbps
Аудио 1: AC3, 6 ch, 384 Kbps, Русский (DUB iTunes)
Аудио 2: DTS, 6 ch, 1509 Kbps, Русский (AVO E. Гаевский)
Аудио 3: DTS, 6 ch, 1509 Kbps, Английский
Общее
Уникальный идентификатор : 248529050291678652636380713775260017895 (0xBAF8F4396394F81E888F3CEED168A4E7)
Полное имя : F: CINEMA21.Bridges.2019.BDRip.1080p.mkv
Формат : Matroska
Версия формата : Version 4
Размер файла : 12, 5 Гбайт
Продолжительность : 1 ч. 39 м.
Общий поток : 17, 9 Мбит/сек
Название фильма : 21.Bridges.2019
Дата кодирования : UTC 2020-08-19 07: 31: 22
Программа кодирования : mkvmerge v8.2.0 (\'World of Adventure\') 64bit
Библиотека кодирования : libebml v1.3.1 + libmatroska v1.4.2
Обложка : Yes
Attachments : cover.jpg
Видео
Идентификатор : 1
Формат : AVC
Формат/Информация : Advanced Video Codec
Профиль формата : [email protected]
Настройки формата : CABAC/4 Ref Frames
Параметр CABAC формата : Да
Параметр RefFrames формата : 4 кадра
Идентификатор кодека : V_MPEG4/ISO/AVC
Продолжительность : 1 ч. 39 м.
Битрейт : 14, 5 Мбит/сек
Ширина : 1 920 пикселей
Высота : 804 пикселя
Соотношение сторон : 2, 40: 1
Режим частоты кадров : Постоянный
Частота кадров : 23, 976 (24000/1001) кадра/сек
Цветовое пространство : YUV
Субдискретизация насыщенности : 4: 2: 0
Битовая глубина : 8 бит
Тип развёртки : Прогрессивная
Бит/(Пиксели*Кадры) : 0.392
Размер потока : 10, 1 Гбайт (81%)
Заголовок : 21.Bridges
Библиотека кодирования : x264 core 157 r2867+150 7e91e0e t_mod_Custom_2 [email protected] X86_64
Настройки программы : cabac=1/ref=4/deblock=1: -3: -3/analyse=0x3: 0x133/me=umh/subme=11/psy=1/fade_compensate=0.00/psy_rd=0.90: 0.10/mixed_ref=1/me_range=64/chroma_me=1/trellis=2/8x8dct=1/cqm=0/deadzone=21, 11/fast_pskip=0/chroma_qp_offset=-4/threads=25/lookahead_threads=4/sliced_threads=0/nr=0/decimate=1/interlaced=0/bluray_compat=0/constrained_intra=0/fgo=0/bframes=8/b_pyramid=2/b_adapt=2/b_bias=0/direct=3/weightb=1/open_gop=0/weightp=2/keyint=250/keyint_min=23/scenecut=40/intra_refresh=0/rc_lookahead=60/rc=crf/mbtree=0/crf=18.0000/qcomp=0.70/qpmin=0: 0: 0/qpmax=69: 69: 69/qpstep=4/vbv_maxrate=35000/vbv_bufsize=35000/crf_max=0.0/nal_hrd=none/filler=0/ip_ratio=1.40/pb_ratio=1.30/aq=3: 1.00/aq-sensitivity=10.00/aq-factor=1.00: 1.00: 1.00/aq2=0/aq3=0
Язык : English
Default : Да
Forced : Нет
Аудио #1
Идентификатор : 2
Формат : AC-3
Формат/Информация : Audio Coding 3
Коммерческое название : Dolby Digital
Идентификатор кодека : A_AC3
Продолжительность : 1 ч. 39 м.
Вид битрейта : Постоянный
Битрейт : 384 Кбит/сек
Каналы : 6 каналов
Channel layout : L R C LFE Ls Rs
Частота : 48, 0 КГц
Частота кадров : 31, 250 кадров/сек (1536 SPF)
Метод сжатия : С потерями
Размер потока : 275 Мбайт (2%)
Заголовок : DUB
Язык : Russian
Service kind : Complete Main
Default : Да
Forced : Нет
Аудио #2
Идентификатор : 3
Формат : DTS
Формат/Информация : Digital Theater Systems
Идентификатор кодека : A_DTS
Продолжительность : 1 ч. 39 м.
Вид битрейта : Постоянный
Битрейт : 1 509 Кбит/сек
Каналы : 6 каналов
Channel layout : C L R Ls Rs LFE
Частота : 48, 0 КГц
Частота кадров : 93, 750 кадра/сек (512 SPF)
Битовая глубина : 24 бит
Метод сжатия : С потерями
Размер потока : 1, 05 Гбайт (8%)
Заголовок : AVO Е.Гаевский
Язык : Russian
Default : Нет
Forced : Нет
Аудио #3
Идентификатор : 4
Формат : DTS
Формат/Информация : Digital Theater Systems
Идентификатор кодека : A_DTS
Продолжительность : 1 ч. 39 м.
Вид битрейта : Постоянный
Битрейт : 1 509 Кбит/сек
Каналы : 6 каналов
Channel layout : C L R Ls Rs LFE
Частота : 48, 0 КГц
Частота кадров : 93, 750 кадра/сек (512 SPF)
Битовая глубина : 24 бит
Метод сжатия : С потерями
Размер потока : 1, 05 Гбайт (8%)
Заголовок : Original
Язык : English
Default : Нет
Forced : Нет
Текст #1
Идентификатор : 5
Формат : UTF-8
Идентификатор кодека : S_TEXT/UTF8
Идентификатор кодека/Информация : UTF-8 Plain Text
Продолжительность : 1 ч. 30 м.
Битрейт : 85 бит/сек
Count of elements : 982
Размер потока : 56, 4 Кбайт (0%)
Заголовок : Full
Язык : Russian
Default : Нет
Forced : Нет
Текст #2
Идентификатор : 6
Формат : UTF-8
Идентификатор кодека : S_TEXT/UTF8
Идентификатор кодека/Информация : UTF-8 Plain Text
Продолжительность : 1 ч. 29 м.
Битрейт : 52 бит/сек
Count of elements : 1116
Размер потока : 34, 5 Кбайт (0%)
Заголовок : Full
Язык : English
Default : Нет
Forced : Нет
Текст #3
Идентификатор : 7
Формат : UTF-8
Идентификатор кодека : S_TEXT/UTF8
Идентификатор кодека/Информация : UTF-8 Plain Text
Продолжительность : 1 ч. 30 м.
Битрейт : 56 бит/сек
Count of elements : 1249
Размер потока : 37, 6 Кбайт (0%)
Заголовок : SDH
Язык : English
Default : Нет
Forced : Нет
Меню
00: 00: 00.000 : : Chapter 01
00: 03: 16.196 : : Chapter 02
00: 07: 48.510 : : Chapter 03
00: 11: 59.344 : : Chapter 04
00: 16: 54.722 : : Chapter 05
00: 22: 33.143 : : Chapter 06
00: 30: 54.561 : : Chapter 07
00: 34: 50.046 : : Chapter 08
00: 40: 16.414 : : Chapter 09
00: 44: 39.719 : : Chapter 10
00: 50: 54.718 : : Chapter 11
00: 54: 04.408 : : Chapter 12
00: 58: 52.320 : : Chapter 13
01: 02: 08.600 : : Chapter 14
01: 06: 19.601 : : Chapter 15
01: 10: 27.557 : : Chapter 16
01: 16: 19.617 : : Chapter 17
01: 19: 19.755 : : Chapter 18
01: 25: 15.110 : : Chapter 19
01: 32: 34.382 : : Chapter 20

Скриншоты для ознакомления



Все одноименные релизы в Клубе
Время раздачи: с 05: 00 до 19: 00 (до появления первых 3-5 скачавших)

Другие торренты по теме:

  • 21 мост / 21 Bridges (2019) WEB-DL [H.265 / 2160p] [4K, SDR, 10-bit]
  • 21 мост / 21 Bridges (2019) BDRip [H.264 / 720p]
  • 21 мост / 21 Bridges (2019) BDRemux [H.264 / 1080p]
  • 21 мост / 21 Bridges (2019) WEB-DLRip
  • 21 мост / 21 Bridges (2019) WEB-DLRip [H.265] [10-bit] [PR]
  • 21 мост / 21 Bridges (2019) WEB-DLRip
  • 21 мост / 21 Bridges (2019) WEB-DL [H.264 / 1080p-LQ]
  • 21 мост / 21 Bridges (2019) WEB-DL [H.264 / 720p]

  • Посетители, находящиеся в группе Гости, не могут оставлять комментарии в данной новости.