Подписывайся на наш канал в Telegram https://t.me/torrentok и получи доступ к торрентам без ограничений!

Взрослеть на полную / Big Time Adolescence (2019) WEB-DL [H.264 / 1080p-LQ] [MVO] торрент скачать бесплатно

Взрослеть на полную / Big Time Adolescence (2019) WEB-DL [H.264 / 1080p-LQ] [MVO]Производство: США/American High, LD Entertainment
Жанр: Драма, Комедия
Режиссер: Джейсон Орли

Актеры
Гриффин Глюк, Эмили Эрлук, Майкл Дивайн, Пит Дэвидсон, Aiden Arthur

Описание

Подросток из пригорода взрослеет, находясь под разрушительным влиянием своего лучшего друга, бросившего колледж.


Возраст: 16+ (зрителям, достигшим 16 лет)
Рейтинг MPAA: R (лицам до 17 лет обязательно присутствие взрослого)
Дата мировой премьеры: 28 января 2019
Дата российской премьеры: Неизвестна
Релиз от: selezen
Продолжительность: 01: 30: 48
Качество видео: WEB-DL
Перевод: Многоголосый профессиональный
Субтитры: Русские (Full, Forced), Английские, Испанские
Видео: AVC/H.264, 1920x1080, ~3814 Kbps
Аудио 1: AC3, 6 ch, 448 Kbps - Русский (MVO, HDRezka Studio)ненормативная лексика!
Аудио 2: E-AC3, 6 ch, 256 Kbps - Английский
General
Unique ID : 267394499633207886128966838096392645674 (0xC92A4EB082233BB17BEB3832118C6C2A)
Complete name : E: Video111Big.Time.Adolescence.2019.WEB-DL.1080p.seleZen.mkv
Format : Matroska
Format version : Version 4
File size : 2.87 GiB
Duration : 1 h 30 min
Overall bit rate : 4 520 kb/s
Movie name : Big Time Adolescence 2019 from селезень
Encoded date : UTC 2020-08-19 08: 37: 34
Writing application : mkvmerge v40.0.0 (\'Old Town Road + Pony\') 64-bit
Writing library : libebml v1.3.9 + libmatroska v1.5.2
Video
ID : 1
Format : AVC
Format/Info : Advanced Video Codec
Format profile : [email protected]
Format settings : CABAC/4 Ref Frames
Format settings, CABAC : Yes
Format settings, Reference frames : 4 frames
Codec ID : V_MPEG4/ISO/AVC
Duration : 1 h 30 min
Bit rate : 3 814 kb/s
Width : 1 920 pixels
Height : 1 080 pixels
Display aspect ratio : 16: 9
Frame rate mode : Constant
Frame rate : 24.000 FPS
Color space : YUV
Chroma subsampling : 4: 2: 0
Bit depth : 8 bits
Scan type : Progressive
Bits/(Pixel*Frame) : 0.077
Stream size : 2.42 GiB (84%)
Language : English
Default : Yes
Forced : No
Audio #1
ID : 2
Format : AC-3
Format/Info : Audio Coding 3
Commercial name : Dolby Digital
Codec ID : A_AC3
Duration : 1 h 30 min
Bit rate mode : Constant
Bit rate : 448 kb/s
Channel(s) : 6 channels
Channel layout : L R C LFE Ls Rs
Sampling rate : 48.0 kHz
Frame rate : 31.250 FPS (1536 SPF)
Compression mode : Lossy
Stream size : 291 MiB (10%)
Title : MVO HDRezka Studio
Language : Russian
Service kind : Complete Main
Default : Yes
Forced : Yes
Audio #2
ID : 3
Format : E-AC-3
Format/Info : Enhanced AC-3
Commercial name : Dolby Digital Plus
Codec ID : A_EAC3
Duration : 1 h 30 min
Bit rate mode : Constant
Bit rate : 256 kb/s
Channel(s) : 6 channels
Channel layout : L R C LFE Ls Rs
Sampling rate : 48.0 kHz
Frame rate : 31.250 FPS (1536 SPF)
Compression mode : Lossy
Stream size : 166 MiB (6%)
Title : Original
Language : English
Service kind : Complete Main
Default : No
Forced : No
Text #1
ID : 4
Format : UTF-8
Codec ID : S_TEXT/UTF8
Codec ID/Info : UTF-8 Plain Text
Duration : 1 h 22 min
Bit rate : 3 b/s
Count of elements : 38
Stream size : 1.97 KiB (0%)
Title : Forced
Language : Russian
Default : Yes
Forced : Yes
Text #2
ID : 5
Format : UTF-8
Codec ID : S_TEXT/UTF8
Codec ID/Info : UTF-8 Plain Text
Duration : 1 h 26 min
Bit rate : 127 b/s
Count of elements : 1467
Stream size : 81.2 KiB (0%)
Title : Full
Language : Russian
Default : No
Forced : No
Text #3
ID : 6
Format : UTF-8
Codec ID : S_TEXT/UTF8
Codec ID/Info : UTF-8 Plain Text
Duration : 1 h 30 min
Bit rate : 99 b/s
Count of elements : 1694
Stream size : 65.6 KiB (0%)
Language : English
Default : No
Forced : No
Text #4
ID : 7
Format : UTF-8
Codec ID : S_TEXT/UTF8
Codec ID/Info : UTF-8 Plain Text
Duration : 1 h 26 min
Bit rate : 96 b/s
Count of elements : 1623
Stream size : 61.2 KiB (0%)
Language : Spanish
Default : No
Forced : No

Скриншоты для ознакомления



Все одноименные релизы в Клубе
Время раздачи: 24/7 (мультитрекер)

Другие торренты по теме:


Посетители, находящиеся в группе Гости, не могут оставлять комментарии в данной новости.