Подписывайся на наш канал в Telegram https://t.me/torrentok и получи доступ к торрентам без ограничений!

Проект Power / Project Power (2020) WEB-DLRip [H.264] торрент скачать бесплатно

Проект Power / Project Power (2020) WEB-DLRip [H.264]Производство: США, NetFlix, Screen Arcade, Supermarché
Жанр: Боевик, фантастика, триллер
Режиссер: Генри Джуст, Эриель Шульман

Актеры
Джейми Фокс, Джозеф Гордон-Левитт, Доминик Фишбэк, Родриго Санторо, Кортни Б. Вэнс, Эми Ландекер, Тейт Флетчер, Аллен Мальдонадо, Андрин Уорд-Хэммонд

Описание

В Новом Орлеане появляется странная пилюля, способная подарить суперспособности любому желающему. За появлением пилюли на улицах города стоит некая таинственная организация. Со стороны может показаться, что их изобретение — невероятный дар, но далеко не все выживают после получения суперспособностей. Невозможно предугадать, какие силы получит человек: кто-то становится невидимым или супербыстрым, но некоторых ждёт смертельный исход. Вдобавок ко всему способности приводят к новой волне криминальных разборок. Местный коп вместе с бывшим военным и девочкой, торговавшей наркотиками, берутся выследить людей, создавших пилюлю.


Рейтинг MPAA: R (лицам до 17 лет обязательно присутствие взрослого)
Дата мировой премьеры: 14 августа 2020
Релиз от: ExKinoRay Optimus
Продолжительность: 01: 53: 17
Качество видео: WEB-DLRip
Перевод: Дублированный, профессиональный многоголосый
Субтитры: Русские (Forced, Full)
Видео: AVC/H.264, 1024x512, ~2461 Kbps
Аудио 1: AC3, 6 ch, 448 Kbps, Русский (DUB Netflix)
Аудио 2: AC3, 6 ch, 448 Kbps, Русский (MVO HDRezka Studio)
Общее
Уникальный идентификатор : 238929116211590315241449823059541119568 (0xB3C012EE5F90CFE2A85DF57545BE5250)
Полное имя : F: CINEMAProject.Power.2020.WEB-DL.AVC.mkv
Формат : Matroska
Версия формата : Version 4
Размер файла : 2, 66 Гбайт
Продолжительность : 1 ч. 53 м.
Общий поток : 3 358 Кбит/сек
Название фильма : Project Power 2020 from ExKinoRay
Дата кодирования : UTC 2020-08-19 06: 41: 57
Программа кодирования : mkvmerge v8.2.0 (\'World of Adventure\') 64bit
Библиотека кодирования : libebml v1.3.1 + libmatroska v1.4.2
Видео
Идентификатор : 1
Формат : AVC
Формат/Информация : Advanced Video Codec
Профиль формата : [email protected]
Настройки формата : CABAC/11 Ref Frames
Параметр CABAC формата : Да
Параметр RefFrames формата : 11 кадров
Идентификатор кодека : V_MPEG4/ISO/AVC
Продолжительность : 1 ч. 53 м.
Битрейт : 2 461 Кбит/сек
Ширина : 1 024 пикселя
Высота : 512 пикселей
Соотношение сторон : 2, 000
Режим частоты кадров : Постоянный
Частота кадров : 24, 000 кадра/сек
Цветовое пространство : YUV
Субдискретизация насыщенности : 4: 2: 0
Битовая глубина : 8 бит
Тип развёртки : Прогрессивная
Бит/(Пиксели*Кадры) : 0.196
Размер потока : 1, 95 Гбайт (73%)
Заголовок : Enigma
Библиотека кодирования : x264 core 152 r2851 ba24899
Настройки программы : cabac=1/ref=11/deblock=1: -2: -2/analyse=0x3: 0x113/me=umh/subme=10/psy=1/psy_rd=1.00: 0.05/mixed_ref=1/me_range=32/chroma_me=1/trellis=2/8x8dct=1/cqm=0/deadzone=21, 11/fast_pskip=0/chroma_qp_offset=-3/threads=12/lookahead_threads=3/sliced_threads=0/nr=0/decimate=0/interlaced=0/bluray_compat=0/constrained_intra=0/bframes=10/b_pyramid=2/b_adapt=2/b_bias=0/direct=3/weightb=1/open_gop=0/weightp=2/keyint=240/keyint_min=24/scenecut=40/intra_refresh=0/rc=2pass/mbtree=0/bitrate=2461/ratetol=1.0/qcomp=0.60/qpmin=0/qpmax=51/qpstep=4/cplxblur=20.0/qblur=0.5/ip_ratio=1.40/pb_ratio=1.30/aq=1: 1.00
Язык : English
Default : Да
Forced : Нет
Цветовой диапазон : Limited
Основные цвета : BT.709
Характеристики трансфера : BT.709
Коэффициенты матрицы : BT.709
Аудио #1
Идентификатор : 2
Формат : AC-3
Формат/Информация : Audio Coding 3
Коммерческое название : Dolby Digital
Идентификатор кодека : A_AC3
Продолжительность : 1 ч. 53 м.
Вид битрейта : Постоянный
Битрейт : 448 Кбит/сек
Каналы : 6 каналов
Channel layout : L R C LFE Ls Rs
Частота : 48, 0 КГц
Частота кадров : 31, 250 кадров/сек (1536 SPF)
Метод сжатия : С потерями
Размер потока : 363 Мбайт (13%)
Заголовок : Dub
Язык : Russian
Service kind : Complete Main
Default : Да
Forced : Нет
Аудио #2
Идентификатор : 3
Формат : AC-3
Формат/Информация : Audio Coding 3
Коммерческое название : Dolby Digital
Идентификатор кодека : A_AC3
Продолжительность : 1 ч. 53 м.
Вид битрейта : Постоянный
Битрейт : 448 Кбит/сек
Каналы : 6 каналов
Channel layout : L R C LFE Ls Rs
Частота : 48, 0 КГц
Частота кадров : 31, 250 кадров/сек (1536 SPF)
Метод сжатия : С потерями
Размер потока : 363 Мбайт (13%)
Заголовок : MVO HDRezka
Язык : Russian
Service kind : Complete Main
Default : Нет
Forced : Нет
Текст #1
Идентификатор : 4
Формат : UTF-8
Идентификатор кодека : S_TEXT/UTF8
Идентификатор кодека/Информация : UTF-8 Plain Text
Продолжительность : 1 ч. 51 м.
Битрейт : 1 бит/сек
Count of elements : 37
Размер потока : 1, 31 Кбайт (0%)
Заголовок : Forced
Язык : Russian
Default : Да
Forced : Нет
Текст #2
Идентификатор : 5
Формат : UTF-8
Идентификатор кодека : S_TEXT/UTF8
Идентификатор кодека/Информация : UTF-8 Plain Text
Продолжительность : 1 ч. 51 м.
Битрейт : 71 бит/сек
Count of elements : 1408
Размер потока : 58, 4 Кбайт (0%)
Заголовок : Full
Язык : Russian
Default : Нет
Forced : Нет

Скриншоты для ознакомления



Все одноименные релизы в Клубе
Время раздачи: с 5 до 19 мск (до появления первых 3-5 скачавших)

Другие торренты по теме:

  • Проект Power / Project Power (2020) WEB-DL [H.265 / 1080p-LQ] [HDR, 10-bit]
  • Проект Power / Project Power (2020) WEB-DL [H.264 / 720p-LQ]
  • Проект Power / Project Power (2020) WEB-DL [H.264 / 1080p-LQ]
  • Проект Power / Project Power (2020) WEB-DL [1080p] ATV
  • Проект Power / Project Power (2020) WEB-DL [H.265 / 2160p] [4K, SDR, 10-bit]
  • Проект Power / Project Power (2020) WEB-DL [H.265 / 2160p] [4K, HDR, 10-bit]
  • Проект Power / Project Power (2020) WEB-DL [H.264 / 1080p]

  • Посетители, находящиеся в группе Гости, не могут оставлять комментарии в данной новости.