Подписывайся на наш канал в Telegram https://t.me/torrentok и получи доступ к торрентам без ограничений!

Чёрная дыра / Pitch Black (2000) UHD BDRemux [H.265 / 2160p] [4K, HDR, Dolby Vision TV, 10-bit] [Unrated Cut] торрент скачать бесплатно

Чёрная дыра / Pitch Black (2000) UHD BDRemux [H.265 / 2160p] [4K, HDR, Dolby Vision TV, 10-bit] [Unrated Cut]Производство: США, Австралия/Polygram Filmed Entertainment
Жанр: Ужасы, Фантастика, Боевик
Режиссер: Дэвид Туи
Продюсер: Том Энгелман, Тед Филд, Скотт Крупф

Актеры
Вин Дизель, Рада Митчелл, Коул Хаузер, Кит Дэвид, Льюис Фиц-Джералд, Клаудия Блэк, Риана Гриффит, Джон Мур, Саймон Бурк, Лес Чэнтери

Описание

В недалеком будущем космический корабль терпит бедствие, в результате чего совершает вынужденную посадку на отдаленной планете. Но в результате такой посадки погибает командир корабля, часть команды и большинство пассажиров.
Оставшиеся в живых оказываются одни на жуткой и безжизненной планете. Первое, что бросается в глаза - это то, что планета имеет три солнца, из-за чего все живое погибает в этой пустыне. Но как только планета погружается в темноту, появляются какие-то странные существа...


Возраст: 16+ (зрителям, достигшим 16 лет)
Рейтинг MPAA: R (лицам до 17 лет обязательно присутствие взрослого)
Релиз от: selezen
Продолжительность: 01: 51: 46
Качество видео: UHD BDRemux
Перевод: Дублированный
Субтитры: Отсутствуют
Видео 1: HEVC/H.265, 3840x2160, ~68, 1 Mbps
Видео 2: HEVC/H.265, 1920x1080, ~102 Kbps
Аудио: AC3, 6 ch, 384 Kbps - Русский (DUB) со вставками многоголосого перевода, в расширенные места
Общее
Полное имя : F: Pitch.Black.2000.DC.BDREMUX.2160p.HDR.DV_TV.seleZen.mp4
Формат : MPEG-4
Профиль формата : Base Media/Version 2
Идентификатор кодека : mp42 (mp42/dby1/isom)
Размер файла : 53, 5 Гбайт
Продолжительность : 1 ч. 51 м.
Общий поток : 68, 5 Мбит/сек
Дата кодирования : UTC 2020-08-17 10: 59: 12
Дата пометки : UTC 2020-08-17 10: 59: 12
Видео #1
Идентификатор : 1
Формат : HEVC
Формат/Информация : High Efficiency Video Coding
Профиль формата : [email protected]@High
HDR_Format/String : SMPTE ST 2086, HDR10 compatible
Идентификатор кодека : hev1
Идентификатор кодека/Информация : High Efficiency Video Coding
Продолжительность : 1 ч. 51 м.
Битрейт : 68, 1 Мбит/сек
Ширина : 3840 пикселей
Высота : 2160 пикселей
Соотношение сторон : 16: 9
Режим частоты кадров : Постоянный
Частота кадров : 24, 000 кадра/сек
Цветовое пространство : YUV
Субдискретизация насыщенности : 4: 2: 0 (Type 2)
Битовая глубина : 10 бит
Бит/(Пиксели*Кадры) : 0.342
Размер потока : 53, 1 Гбайт (99%)
Библиотека кодирования : x265 3.3+21-6bb2d88029c2: WindowsGCC 6.3.064 bit 10bit
Настройки программы : cpuid=1111039/frame-threads=6/numa-pools=16, 16/wpp/no-pmode/no-pme/no-psnr/no-ssim/log-level=2/input-csp=1/input-res=3840x2160/interlace=0/total-frames=531/level-idc=51/high-tier=1/uhd-bd=1/ref=5/no-allow-non-conformance/repeat-t_heads/annexb/aud/hrd/info/hash=0/no-temporal-layers/no-open-gop/min-keyint=1/keyint=24/gop-lookahead=0/bframes=3/b-adapt=2/b-pyramid/bframe-bias=0/rc-lookahead=24/lookahead-slices=0/scenecut=40/hist-scenecut=0/radl=0/no-splice/no-intra-refresh/ctu=64/min-cu-size=8/rect/amp/max-tu-size=32/tu-inter-depth=3/tu-intra-depth=3/limit-tu=0/rdoq-level=2/dynamic-rd=0.00/no-ssim-rd/signhide/tskip/nr-intra=0/nr-inter=0/constrained-intra/no-strong-intra-smoothing/max-merge=5/limit-refs=0/no-limit-modes/me=3/subme=4/merange=57/temporal-mvp/no-frame-dup/no-hme/weightp/weightb/no-analyze-src-pics/deblock=-2: -2/no-sao/no-sao-non-deblock/rd=6/selective-sao=0/no-early-skip/rskip/no-fast-intra/no-tskip-fast/cu-lossless/b-intra/no-splitrd-skip/rdpenalty=0/psy-rd=5.00/psy-rdoq=50.00/no-rd-refine/no-lossless/cbqpoffs=0/crqpoffs=0/rc=abr/bitrate=68000/qcomp=0.60/qpstep=4/stats-write=1/stats-read=0/slow-firstpass/vbv-maxrate=85000/vbv-bufsize=99000/vbv-init=0.9/ipratio=1.40/pbratio=1.30/aq-mode=2/aq-strength=0.80/no-cutree/zone-count=0/no-strict-cbr/qg-size=32/no-rc-grain/qpmax=69/qpmin=0/no-const-vbv/sar=1/overscan=0/videoformat=5/range=0/colorprim=9/transfer=16/colormatrix=9/chromaloc=1/chromaloc-top=2/chromaloc-bottom=2/display-window=0/master-display=G(8500, 39850)B(6550, 2300)R(35400, 14600)WP(15635, 16450)L(10000000, 1)/cll=0, 0/min-luma=0/max-luma=1023/log2-max-poc-lsb=8/vui-timing-info/vui-hrd-info/slices=1/no-opt-qp-pps/no-opt-ref-list-length-pps/no-multi-pass-opt-rps/scenecut-bias=0.05/hist-threshold=0.01/no-opt-cu-delta-qp/no-aq-motion/hdr10/hdr10-opt/no-dhdr10-opt/no-idr-recovery-sei/analysis-reuse-level=0/analysis-save-reuse-level=0/analysis-load-reuse-level=0/scale-factor=0/refine-intra=0/refine-inter=0/refine-mv=1/refine-ctu-distortion=0/no-limit-sao/ctu-info=0/no-lowpass-dct/refine-analysis-type=0/copy-pic=1/max-ausize-factor=1.0/no-dynamic-refine/no-single-sei/no-hevc-aq/no-svt/no-field/qp-adaptation-range=1.00/no-scenecut-aware-qpconformance-window-offsets/right=0/bottom=0/decoder-max-rate=0
Default : Нет
Дата кодирования : UTC 2020-08-17 10: 59: 12
Дата пометки : UTC 2020-08-17 10: 59: 12
Цветовой диапазон : Limited
Основные цвета : BT.2020
Характеристики трансфера : PQ
Коэффициенты матрицы : BT.2020 non-constant
MasteringDisplay_ColorPrimaries : BT.2020
MasteringDisplay_Luminance : min: 0.0001 cd/m2, max: 1000 cd/m2
Codec configuration box : hvcC
Видео #2
Идентификатор : 2
Формат : HEVC
Формат/Информация : High Efficiency Video Coding
Профиль формата : [email protected]@High
HDR_Format/String : Dolby Vision, Version 1.0, dvhe.07.06, EL+RPU/SMPTE ST 2086, HDR10 compatible
Идентификатор кодека : dvhe
Идентификатор кодека/Информация : High Efficiency Video Coding with Dolby Vision
Продолжительность : 1 ч. 51 м.
Битрейт : 102 Кбит/сек
Ширина : 1920 пикселей
Высота : 1080 пикселей
Соотношение сторон : 16: 9
Режим частоты кадров : Постоянный
Частота кадров : 24, 000 кадра/сек
Цветовое пространство : YUV
Субдискретизация насыщенности : 4: 2: 0 (Type 2)
Битовая глубина : 10 бит
Бит/(Пиксели*Кадры) : 0.002
Размер потока : 81, 8 Мбайт (0%)
Библиотека кодирования : x265 3.3+21-6bb2d88029c2: WindowsGCC 6.3.064 bit 10bit
Настройки программы : cpuid=1111039/frame-threads=5/numa-pools=16, 16/wpp/no-pmode/no-pme/no-psnr/no-ssim/log-level=2/input-csp=1/input-res=1920x1080/interlace=0/total-frames=531/level-idc=51/high-tier=1/uhd-bd=1/ref=4/no-allow-non-conformance/repeat-t_heads/annexb/aud/hrd/info/hash=0/no-temporal-layers/no-open-gop/min-keyint=1/keyint=24/gop-lookahead=0/bframes=3/b-adapt=2/b-pyramid/bframe-bias=0/rc-lookahead=24/lookahead-slices=4/scenecut=40/hist-scenecut=0/radl=0/no-splice/no-intra-refresh/ctu=64/min-cu-size=8/rect/no-amp/max-tu-size=32/tu-inter-depth=1/tu-intra-depth=1/limit-tu=0/rdoq-level=2/dynamic-rd=0.00/no-ssim-rd/signhide/no-tskip/nr-intra=0/nr-inter=0/no-constrained-intra/strong-intra-smoothing/max-merge=3/limit-refs=3/limit-modes/me=3/subme=3/merange=57/temporal-mvp/no-frame-dup/no-hme/weightp/no-weightb/no-analyze-src-pics/deblock=0: 0/sao/no-sao-non-deblock/rd=4/selective-sao=4/no-early-skip/rskip/no-fast-intra/no-tskip-fast/no-cu-lossless/no-b-intra/no-splitrd-skip/rdpenalty=0/psy-rd=2.00/psy-rdoq=1.00/no-rd-refine/no-lossless/cbqpoffs=0/crqpoffs=0/rc=cbr/bitrate=500/qcomp=0.60/qpstep=4/stats-write=0/stats-read=0/vbv-maxrate=500/vbv-bufsize=550/vbv-init=0.9/ipratio=1.40/pbratio=1.30/aq-mode=2/aq-strength=1.00/cutree/zone-count=0/no-strict-cbr/qg-size=32/no-rc-grain/qpmax=69/qpmin=0/no-const-vbv/sar=1/overscan=0/videoformat=5/range=0/colorprim=9/transfer=16/colormatrix=9/chromaloc=1/chromaloc-top=2/chromaloc-bottom=2/display-window=0/master-display=G(8500, 39850)B(6550, 2300)R(35400, 14600)WP(15635, 16450)L(10000000, 1)/cll=0, 0/min-luma=0/max-luma=1023/log2-max-poc-lsb=8/vui-timing-info/vui-hrd-info/slices=1/no-opt-qp-pps/no-opt-ref-list-length-pps/no-multi-pass-opt-rps/scenecut-bias=0.05/hist-threshold=0.01/no-opt-cu-delta-qp/no-aq-motion/hdr10/hdr10-opt/no-dhdr10-opt/no-idr-recovery-sei/analysis-reuse-level=0/analysis-save-reuse-level=0/analysis-load-reuse-level=0/scale-factor=0/refine-intra=0/refine-inter=0/refine-mv=1/refine-ctu-distortion=0/no-limit-sao/ctu-info=0/no-lowpass-dct/refine-analysis-type=0/copy-pic=1/max-ausize-factor=1.0/no-dynamic-refine/no-single-sei/no-hevc-aq/no-svt/no-field/qp-adaptation-range=1.00/no-scenecut-aware-qpconformance-window-offsets/right=0/bottom=0/decoder-max-rate=0
Default : Нет
Дата кодирования : UTC 2020-08-17 10: 59: 12
Дата пометки : UTC 2020-08-17 10: 59: 12
Цветовой диапазон : Limited
Основные цвета : BT.2020
Характеристики трансфера : PQ
Коэффициенты матрицы : BT.2020 non-constant
MasteringDisplay_ColorPrimaries : BT.2020
MasteringDisplay_Luminance : min: 0.0001 cd/m2, max: 1000 cd/m2
Codec configuration box : hvcC+dvcC
Аудио
Идентификатор : 3
Формат : AC-3
Формат/Информация : Audio Coding 3
Коммерческое название : Dolby Digital
Идентификатор кодека : ac-3
Продолжительность : 1 ч. 51 м.
Вид битрейта : Постоянный
Битрейт : 384 Кбит/сек
Каналы : 6 каналов
ChannelLayout : L R C LFE Ls Rs
Частота : 48, 0 КГц
Частота кадров : 31, 250 кадров/сек (1536 SPF)
Битовая глубина : 16 бит
Метод сжатия : С потерями
Размер потока : 307 Мбайт (1%)
Язык : Russian
ServiceKind/String : Complete Main
Default : Нет
Дата кодирования : UTC 2020-08-17 10: 59: 12
Дата пометки : UTC 2020-08-17 10: 59: 12
Диск на Blu-ray.com
Просмотр 4K HDR-контента на ПК

Скриншоты для ознакомления



Все одноименные релизы в Клубе
Время раздачи: 24/7 (круглосуточно) (до появления первых 3-5 скачавших)

Другие торренты по теме:

  • Военная приемка. Проект 636. «Чёрная дыра» (2015) SATRip скачать через торрент бесплатно
  • Чёрная дыра / Pitch Black (2000) BDRip
  • Чёрная дыра / Pitch Black (1999) WEB-DLRip [Theatrical Cut] [Open Matte]
  • Чёрная дыра / Pitch Black (2000) BDRip [H.264 / 1080p-LQ]
  • Чёрная дыра / Pitch Black (2000) WEB-DL [H.264 / 1080p] [Theatrical Cut] [Open Matte]
  • Bishoujo Senshi Sailor Moon Super S: Sailor 9 Senshi Shuuketsu! Black Dream Hole no Kiseki | Pretty Soldier Sailor Moon Super S: Black Dream Hole | Красавица-воин Сейлор Мун Супер Эс: Чёрная дыра снов [1995, Movie] BDRip 1080p raw
  • Чёрная дыра / Pitch Black (2000) UHD BDRemux [H.265 / 2160p] [4K, HDR, 10-bit] [Directors Cut]
  • Чёрная дыра / Pitch Black (2000) UHD BDRemux [H.265 / 2160p] [4K, HDR, Dolby Vision, 10-bit] [Unrated Cut]

  • Посетители, находящиеся в группе Гости, не могут оставлять комментарии в данной новости.