Подписывайся на наш канал в Telegram https://t.me/torrentok и получи доступ к торрентам без ограничений!

Пандемия / Pandemic (2016) BDRip [H.264 / 1080p] [PR] торрент скачать бесплатно

Пандемия / Pandemic (2016) BDRip [H.264 / 1080p] [PR]Производство: США, New Artists Alliance, Parkside Pictures, Tadross Media Group
Жанр: Ужасы, фантастика, боевик, триллер
Режиссер: Джон Суитц

Актеры
Рэйчел Николс, Алфи Аллен, Мисси Пайл, Мекхай Файфер, Пол Гилфойл, Даниэль Роуз Расселл, Пэт Хили, Роберт Льюис Стефенсон, Аманда Бэйкер, Сара Томко

Описание
На планете Земля зверствует страшный вирус, превращающий людей в безмозглых и агрессивных тварей. Доктор Лорен в составе небольшой группы направлена в центр города с заданием найти и спасти незаражённых выживших.


Релиз от: ELEKTRI4KA
Продолжительность: 01: 32: 01
Качество видео: BDRip
Перевод: Профессиональный многоголосый(IVI)
Субтитры: Английские
Видео: AVC/H.264, 1920x816, ~8686 Kbps
Аудио 1: AC3, 2 ch, 192 Kbps - Русский
Аудио 2: DTS, 6 ch, 1509 Kbps - Английский
Общее
Уникальный идентификатор : 182250598229519670738238759714961739774 (0x891C303E57B1D2819A71A709C0FFCFFE)
Полное имя : F: Pandemic.2016.BDRip.1080p.ELEKTRI4KA.UNIONGANG.mkv
Формат : Matroska
Версия формата : Version 4
Размер файла : 6, 68 Гбайт
Продолжительность : 1 ч. 32 м.
Общий поток : 10, 4 Мбит/сек
Название фильма : .ELEKTRI4KA.UNIONGANG.
Дата кодирования : UTC 2020-08-15 10: 57: 35
Программа кодирования : mkvmerge v8.3.0 (\'Over the Horizon\') 64bit
Библиотека кодирования : libebml v1.3.1 + libmatroska v1.4.2
Видео
Идентификатор : 1
Формат : AVC
Формат/Информация : Advanced Video Codec
Профиль формата : [email protected]
Настройки формата : CABAC/5 Ref Frames
Параметр CABAC формата : Да
Параметр RefFrames формата : 5 кадров
Идентификатор кодека : V_MPEG4/ISO/AVC
Продолжительность : 1 ч. 32 м.
Битрейт : 8686 Кбит/сек
Ширина : 1920 пикселей
Высота : 816 пикселей
Соотношение сторон : 2, 35: 1
Режим частоты кадров : Постоянный
Частота кадров : 23, 976 (24000/1001) кадра/сек
Цветовое пространство : YUV
Субдискретизация насыщенности : 4: 2: 0
Битовая глубина : 8 бит
Тип развёртки : Прогрессивная
Бит/(Пиксели*Кадры) : 0.231
Размер потока : 5, 58 Гбайт (84%)
Библиотека кодирования : x264 core 148 r2665 a01e339
Настройки программы : cabac=1/ref=5/deblock=1: -1: -1/analyse=0x3: 0x133/me=umh/subme=8/psy=1/psy_rd=1.00: 0.15/mixed_ref=1/me_range=16/chroma_me=1/trellis=1/8x8dct=1/cqm=0/deadzone=21, 11/fast_pskip=0/chroma_qp_offset=-4/threads=24/lookahead_threads=4/sliced_threads=0/nr=0/decimate=1/interlaced=0/bluray_compat=0/constrained_intra=0/bframes=3/b_pyramid=2/b_adapt=2/b_bias=0/direct=3/weightb=1/open_gop=0/weightp=2/keyint=240/keyint_min=23/scenecut=40/intra_refresh=0/rc_lookahead=50/rc=2pass/mbtree=1/bitrate=8686/ratetol=1.0/qcomp=0.60/qpmin=10/qpmax=69/qpstep=4/cplxblur=20.0/qblur=0.5/ip_ratio=1.40/aq=1: 1.00
Язык : English
Default : Да
Forced : Нет
Аудио #1
Идентификатор : 2
Формат : AC-3
Формат/Информация : Audio Coding 3
Коммерческое название : Dolby Digital
Идентификатор кодека : A_AC3
Продолжительность : 1 ч. 32 м.
Вид битрейта : Постоянный
Битрейт : 192 Кбит/сек
Каналы : 2 канала
ChannelLayout : L R
Частота : 48, 0 КГц
Частота кадров : 31, 250 кадров/сек (1536 SPF)
Битовая глубина : 16 бит
Метод сжатия : С потерями
Размер потока : 126 Мбайт (2%)
Заголовок : IVI
Язык : Russian
ServiceKind/String : Complete Main
Default : Да
Forced : Да
Аудио #2
Идентификатор : 3
Формат : DTS
Формат/Информация : Digital Theater Systems
Идентификатор кодека : A_DTS
Продолжительность : 1 ч. 32 м.
Вид битрейта : Постоянный
Битрейт : 1509 Кбит/сек
Каналы : 6 каналов
ChannelLayout : C L R Ls Rs LFE
Частота : 48, 0 КГц
Частота кадров : 93, 750 кадра/сек (512 SPF)
Битовая глубина : 24 бит
Метод сжатия : С потерями
Размер потока : 993 Мбайт (15%)
Язык : English
Default : Нет
Forced : Нет
Текст
Идентификатор : 4
Формат : UTF-8
Идентификатор кодека : S_TEXT/UTF8
Идентификатор кодека/Информация : UTF-8 Plain Text
Продолжительность : 1 ч. 26 м.
Битрейт : 49 бит/сек
ElementCount : 849
Размер потока : 31, 4 Кбайт (0%)
Язык : English
Default : Нет
Forced : Нет
Меню
00: 00: 00.000 : en: 00: 00: 00.000
00: 09: 47.712 : en: 00: 09: 47.712
00: 17: 12.782 : en: 00: 17: 12.782
00: 25: 10.384 : en: 00: 25: 10.384
00: 33: 38.808 : en: 00: 33: 38.808
00: 39: 56.060 : en: 00: 39: 56.060
00: 49: 01.939 : en: 00: 49: 01.939
00: 57: 03.962 : en: 00: 57: 03.962
01: 04: 01.796 : en: 01: 04: 01.796
01: 12: 30.179 : en: 01: 12: 30.179
01: 20: 08.137 : en: 01: 20: 08.137
01: 27: 56.855 : en: 01: 27: 56.855

Скриншоты для ознакомления



Все одноименные релизы в Клубе
Время раздачи: 24/7 (круглосуточно) (до появления первых 3-5 скачавших)

Другие торренты по теме:

  • Пандемия / Pandemic (2016) WEB-DL [H.264 / 720p-LQ]
  • Пандемия / Pandemic (2016) WEB-DLRip
  • Пандемия / Pandemic (2016) BDRip [H.264 / 720p] [EN]
  • Пандемия / Pandemic (2016) BDRip [H.264 / 1080p] [EN]
  • Пандемия / Pandemic (2016) HDRip
  • Пандемия / Pandemic (2016) BDRemux [H.264 / 1080p] [EN / Da, Du, Fi, Ge, Nо, Sw Sub]
  • Пандемия / Pandemic (2016) BDRip [H.264 / 720p]
  • Пандемия: Коронавирус / Pandemic: Covid-19 (2020) WEBRip [H.264 / 720p-LQ] LakeFilms [AD]

  • Посетители, находящиеся в группе Гости, не могут оставлять комментарии в данной новости.