Подписывайся на наш канал в Telegram https://t.me/torrentok и получи доступ к торрентам без ограничений!

Бродяга Архимед (Архимед, клошар) / Archimede, le clochard (1959) DVDRip [FR / Ru Sub] торрент скачать бесплатно

Бродяга Архимед (Архимед, клошар) / Archimede, le clochard (1959) DVDRip [FR / Ru Sub]Производство: Франция, Италия/Filmsonor, Intermondia Films
Жанр: драма, комедия
Режиссер: Жиль Гранжье

Актеры
Жан Габен, Дарри Коул, Бернар Блие, Дора Долл, Поль Франкёр, Габи Бассет, Саша Брике, Ги Декомбль, Альбер Динан, Бернар Ла Жарриж

Описание

Клошар Архимед — обаятельный, воспитанный, эрудированный человек. У него в распоряжении целых четыре многоэтажных дома. Они еще не достроены, потому жить никто не мешает. Одна проблема — децибелы. С утра до вечера назойливые строители что-то долбят и сверлят, проводят то газ, то воду. Одним словом, не дают спокойно ни поспать, ни пообедать. Остаются два варианта — в тюрьму, или на Юг.


Релиз от: Веселый Гном
Продолжительность: 01: 20: 33
Качество видео: DVDRip
Перевод: Отсутствует
Субтитры: Русские (авторские — Веселый Гном), французские
Видео: AVC/H.264, 720х434, ~3200 kbps
Аудио: AC3, 1 ch, 384 kbps
General
Unique ID : 113011217795336233829470999856362138264 (0x55052B391F5DD900058120D26E2DAA98)
Complete name : F: BUFERSБуферBousculer en µArchimède, le clochard. 19598 Archimede, le clochard°. 1959 Перевод и субтитры - Веселый Гном.mkv
Format : Matroska
Format version : Version 4
File size : 2.02 GiB
Duration : 1 h 20 min
Overall bit rate : 3 586 kb/s
Encoded date : UTC 2020-08-18 19: 06: 10
Writing application : mkvmerge v29.0.0 (\'Like It Or Not\') 64-bit
Writing library : libebml v1.3.6 + libmatroska v1.4.9/Lavf58.49.100
Copyright : œuvre de Gnome Jovial
Video
ID : 1
Format : AVC
Format/Info : Advanced Video Codec
Format profile : [email protected]
Format settings : CABAC/9 Ref Frames
Format settings, CABAC : Yes
Format settings, ReFrames : 9 frames
Codec ID : V_MPEG4/ISO/AVC
Duration : 1 h 20 min
Bit rate : 3 200 kb/s
Width : 720 pixels
Height : 434 pixels
Display aspect ratio : 5: 3
Frame rate mode : Constant
Frame rate : 25.000 FPS
Color space : YUV
Chroma subsampling : 4: 2: 0
Bit depth : 8 bits
Scan type : Progressive
Bits/(Pixel*Frame) : 0.410
Stream size : 1.80 GiB (89%)
Writing library : x264 core 161 r3018
Encoding settings : cabac=1/ref=9/deblock=1: -3: -1/analyse=0x3: 0x133/me=umh/subme=9/psy=0/mixed_ref=1/me_range=32/chroma_me=1/trellis=2/8x8dct=1/cqm=0/deadzone=21, 11/fast_pskip=0/chroma_qp_offset=0/threads=14/lookahead_threads=2/sliced_threads=0/nr=0/decimate=0/interlaced=0/bluray_compat=0/constrained_intra=0/bframes=7/b_pyramid=2/b_adapt=2/b_bias=0/direct=3/weightb=1/open_gop=0/weightp=2/keyint=250/keyint_min=25/scenecut=40/intra_refresh=0/rc_lookahead=60/rc=2pass/mbtree=1/bitrate=3200/ratetol=1.0/qcomp=0.60/qpmin=10/qpmax=69/qpstep=4/cplxblur=20.0/qblur=0.5/ip_ratio=1.40/aq=1: 1.00
Language : French
Default : Yes
Forced : No
Audio
ID : 2
Format : AC-3
Format/Info : Audio Coding 3
Commercial name : Dolby Digital
Codec ID : A_AC3
Duration : 1 h 20 min
Bit rate mode : Constant
Bit rate : 384 kb/s
Channel(s) : 1 channel
Channel layout : C
Sampling rate : 48.0 kHz
Frame rate : 31.250 FPS (1536 SPF)
Bit depth : 16 bits
Compression mode : Lossy
Stream size : 221 MiB (11%)
Title : français
Language : French
Service kind : Complete Main
Default : Yes
Forced : No
Text #1
ID : 3
Format : UTF-8
Codec ID : S_TEXT/UTF8
Codec ID/Info : UTF-8 Plain Text
Duration : 1 h 20 min
Bit rate : 87 b/s
Count of elements : 1281
Stream size : 51.4 KiB (0%)
Title : Веселый Гном, 2020
Language : Russian
Default : Yes
Forced : No
Text #2
ID : 4
Format : UTF-8
Codec ID : S_TEXT/UTF8
Codec ID/Info : UTF-8 Plain Text
Duration : 1 h 19 min
Bit rate : 56 b/s
Count of elements : 1409
Stream size : 33.3 KiB (0%)
Title : français
Language : French
Default : No
Forced : No

Другие торренты по теме:

  • Бродяга Архимед (Архимед, клошар) / Archimede, le clochard (1959) BDRip [H.264 / 720p] [FR / RU Sub]

  • Посетители, находящиеся в группе Гости, не могут оставлять комментарии в данной новости.