Подписывайся на наш канал в Telegram https://t.me/torrentok и получи доступ к торрентам без ограничений!

Селена / Selena (1997) WEB-DLRip [H.264 / 720p-LQ] [Open Matte] торрент скачать бесплатно

Селена / Selena (1997) WEB-DLRip [H.264 / 720p-LQ] [Open Matte]Производство: США/Q Productions, Katz Productions, Warner Bros.
Жанр: драма, биография, музыка
Режиссер: Грегори Нава

Актеры
Дженнифер Лопес, Джеки Герра, Констанс Мари, Алекс Менесес, Джон Седа, Эдвард Джеймс Олмос, Джейкоб Варгас, Пит Астудильо, Рубен Гонсалес, Рики Вела

Описание

Под техано не танцует только мертвый. Голос Селены поднимет зрителя с насиженного стула. Техано — стиль, популярный на юге США и в Мексике. Это заводная смесь поп-музыки и рока, польки, ритм-энд-блюза с латиноамериканскими мотивами. Селена Кинтанилья Перес — не менее заводная певица, заставившая всю Америку полюбить техано. Селена трагически погибла, когда ей было всего 23 года.


Возраст: 0+ (для любой зрительской аудитории)
Рейтинг MPAA: PG (рекомендуется присутствие родителей)
Релиз от: KORSAR
Продолжительность: 02: 07: 26
Качество видео: WEB-DLRip
Перевод: Многоголосый профессиональный, двухголосый профессиональный
Субтитры: английские, финские
Видео: AVC/H.264, 1280x720, 23.976 fps, ~5965 Kbps
Аудио 1: AC3, 2 ch, 224 Kbps - Русский (MVO Варус-видео)
Аудио 2: AC3, 2 ch, 192 Kbps - Русский (DVO НТВ+)
Аудио 3: E-AC3, 6 ch, 640 Kbps - Английский
General
Unique ID : 248759763432227749497107241780694294964 (0xBB2563429E9067679F11575929A121B4)
Complete name : D: Селена.1997.WEB-DLRip.720p.KORSAR.Open.Matte.mkv
Format : Matroska
Format version : Version 2
File size : 6.25 GiB
Duration : 2 h 7 min
Overall bit rate : 7 020 kb/s
Encoded date : UTC 2018-02-04 19: 34: 55
Writing application : mkvmerge v5.8.0 (\'No Sleep/Pillow\') built on Sep 2 2012 15: 37: 04
Writing library : libebml v1.2.3 + libmatroska v1.3.0
Video
ID : 1
Format : AVC
Format/Info : Advanced Video Codec
Format profile : [email protected]
Format settings : CABAC/9 Ref Frames
Format settings, CABAC : Yes
Format settings, Reference : 9 frames
Codec ID : V_MPEG4/ISO/AVC
Duration : 2 h 7 min
Bit rate : 5 965 kb/s
Width : 1 280 pixels
Height : 720 pixels
Display aspect ratio : 16: 9
Frame rate mode : Constant
Frame rate : 23.976 (24000/1001) FPS
Color space : YUV
Chroma subsampling : 4: 2: 0
Bit depth : 8 bits
Scan type : Progressive
Bits/(Pixel*Frame) : 0.270
Stream size : 5.18 GiB (83%)
Title : RIP | MZMA
Writing library : x264 core 152 r2851kMod ba24899
Encoding settings : cabac=1/ref=9/deblock=1: -2: -2/analyse=0x3: 0x113/me=umh/subme=11/psy=1/fade_compensate=0.00/psy_rd=0.90: 0.05/mixed_ref=1/me_range=48/chroma_me=1/trellis=2/8x8dct=1/cqm=0/deadzone=21, 11/fast_pskip=0/chroma_qp_offset=-3/threads=6/lookahead_threads=1/sliced_threads=0/nr=0/decimate=0/interlaced=0/bluray_compat=0/constrained_intra=0/bframes=16/b_pyramid=2/b_adapt=2/b_bias=0/direct=3/weightb=1/open_gop=0/weightp=2/keyint=240/keyint_min=23/scenecut=40/intra_refresh=0/rc_lookahead=40/rc=2pass/mbtree=0/bitrate=5965/ratetol=1.0/qcomp=0.60/qpmin=0/qpmax=69/qpstep=4/cplxblur=20.0/qblur=0.5/vbv_maxrate=50000/vbv_bufsize=62500/nal_hrd=none/filler=0/ip_ratio=1.25/pb_ratio=1.30/aq=3: 0.70
Language : English
Default : Yes
Forced : No
Color range : Limited
Color primaries : BT.709
Transfer characteristics : BT.709
Matrix coefficients : BT.709
Audio #1
ID : 2
Format : AC-3
Format/Info : Audio Coding 3
Commercial name : Dolby Digital
Codec ID : A_AC3
Duration : 2 h 7 min
Bit rate mode : Constant
Bit rate : 224 kb/s
Channel(s) : 2 channels
Channel layout : L R
Sampling rate : 48.0 kHz
Frame rate : 31.250 FPS (1536 SPF)
Bit depth : 16 bits
Compression mode : Lossy
Stream size : 204 MiB (3%)
Title : MVO | Варус-Видео
Language : Russian
Service kind : Complete Main
Default : Yes
Forced : No
Audio #2
ID : 3
Format : AC-3
Format/Info : Audio Coding 3
Commercial name : Dolby Digital
Codec ID : A_AC3
Duration : 2 h 7 min
Bit rate mode : Constant
Bit rate : 192 kb/s
Channel(s) : 2 channels
Channel layout : L R
Sampling rate : 48.0 kHz
Frame rate : 31.250 FPS (1536 SPF)
Bit depth : 16 bits
Compression mode : Lossy
Stream size : 175 MiB (3%)
Title : DVO | НТВ+
Language : Russian
Service kind : Complete Main
Default : No
Forced : No
Audio #3
ID : 4
Format : E-AC-3
Format/Info : Enhanced AC-3
Commercial name : Dolby Digital Plus
Codec ID : A_EAC3
Duration : 2 h 7 min
Bit rate mode : Constant
Bit rate : 640 kb/s
Channel(s) : 6 channels
Channel layout : L R C LFE Ls Rs
Sampling rate : 48.0 kHz
Frame rate : 31.250 FPS (1536 SPF)
Compression mode : Lossy
Stream size : 583 MiB (9%)
Title : Original
Language : English
Service kind : Complete Main
Default : No
Forced : No
Text #1
ID : 5
Format : UTF-8
Codec ID : S_TEXT/UTF8
Codec ID/Info : UTF-8 Plain Text
Title : SDH
Language : English
Default : No
Forced : No
Text #2
ID : 6
Format : UTF-8
Codec ID : S_TEXT/UTF8
Codec ID/Info : UTF-8 Plain Text
Language : Finnish
Default : No
Forced : No
Menu
00: 00: 00.000 : en: Houston Concert
00: 03: 35.866 : en: I Will Survive, Last Dance…
00: 07: 15.866 : en: Blue Moon, We Belong Together
00: 11: 22.866 : en: We Belong Together
00: 14: 11.866 : en: A Band Is Born?
00: 18: 17.866 : en: Over the Rainbow
00: 22: 40.866 : en: Selena\'s Dream
00: 23: 42.866 : en: From Deep Inside
00: 25: 56.866 : en: Regresa a Mi
00: 30: 53.866 : en: La Manzana
00: 33: 08.866 : en: Baila Esta Cumbia
00: 37: 08.866 : en: Abraham\'s Little Girl
00: 40: 57.866 : en: Anything for Salinas
00: 44: 52.866 : en: Chris Perez
00: 48: 11.866 : en: Plain Talk and Pizza
00: 51: 01.866 : en: A #1 Hit: Como la Flor
00: 54: 13.866 : en: Feeling Different
00: 58: 07.866 : en: Mexican-American Is Hard!
01: 00: 17.866 : en: Hollywood: Dumb Behavior
01: 03: 21.866 : en: La Caracha, Como la Flor
01: 12: 37.866 : en: Love Declared
01: 15: 14.866 : en: Love Forbidden
01: 19: 24.866 : en: What If They\'re Right?
01: 21: 25.866 : en: Selena Let\'s Go
01: 26: 08.866 : en: Newlywed Jitters
01: 27: 51.866 : en: Reconciliation
01: 31: 16.866 : en: Flying Bidi, Bibi, Bom Bom
01: 36: 54.866 : en: Dressing for the Grammys
01: 41: 35.866 : en: Triumphs Amor Prohibido
01: 44: 11.866 : en: Gift Ideas
01: 45: 11.866 : en: I Could Fall in Love
01: 48: 56.866 : en: Ring Between Friends
01: 49: 49.866 : en: Anything\'s Possible
01: 51: 57.866 : en: Problems with Yolanda
01: 54: 48.866 : en: Dreaming of You
02: 00: 28.866 : en: Farewell Dreaming of You
02: 03: 38.866 : en: Where Did the Feeling Go?

Другие торренты по теме:

  • Тайна острова Каитангата / Kaitangata Twitch (2010–2011) WEB-DLRip (сезон 1, серии 1-13 из 13) Селена интернэшнл скачать через торрент бесплатно
  • Робин Гуд / Robin Hood (2006) WEB-DL [H.264 / 720p-LQ] (сезон 1, серии 1-13 из 13) Селена Интернэшнл
  • Селена Сирена | История лисы-метаморфа (2020) [MP3]

  • Посетители, находящиеся в группе Гости, не могут оставлять комментарии в данной новости.